School Wala Love (2020) Hindi 720p CinemaDosti Originals WEB-DL x264 AAC 300MB - MovCr

  • CategoryMovies
  • TypeBollywood
  • LanguageHindi
  • Total size321.4 MB
  • Uploaded ByMovCr
  • Downloads20095
  • Last checkedApr. 25th '20
  • Date uploadedApr. 22nd '20
  • Seeders 179
  • Leechers80

Infohash : D3ECAF0BA9F467EC4FB0B7A744C2C8EFF69E34DD

Visit https://MovCr.to

School Wala Love (2020) Hindi 720p CinemaDosti Originals WEB-DL x264 AAC 300MB - MovCr



Media Info :
Video
ID : 1
Format : AVC
Format/Info : Advanced Video Codec
Format profile : [email protected]
Format settings : CABAC / 4 Ref Frames
Format settings, CABAC : Yes
Format settings, RefFrames : 4 frames
Codec ID : V_MPEG4/ISO/AVC
Duration : 28 min 1 s
Bit rate : 1 436 kb/s
Width : 1 280 pixels
Height : 548 pixels
Display aspect ratio : 2.35:1
Frame rate mode : Constant
Frame rate : 25.000 FPS
Color space : YUV
Chroma subsampling : 4:2:0
Bit depth : 8 bits
Scan type : Progressive
Bits/(Pixel*Frame) : 0.082
Stream size : 288 MiB (90%)

Audio
ID : 2
Format : AAC
Format/Info : Advanced Audio Codec
Format profile : LC
Codec ID : A_AAC-2
Duration : 28 min 1 s
Bit rate : 164 kb/s
Channel(s) : 2 channels
Channel positions : Front: L R
Sampling rate : 48.0 kHz
Frame rate : 46.875 FPS (1024 SPF)
Compression mode : Lossy
Delay relative to video : -44 ms
Stream size : 33.0 MiB (10%)















Files:

  • (18+) www.MovCr.to - School Wala Love (2020) Hindi 720p CinemaDosti Originals WEB-DL x264 AAC 320MB - MovCr.mkv (321.4 MB)

Code:

  • udp://p4p.arenabg.com:1337/announce
  • udp://open.demonii.si:1337/announce
  • udp://explodie.org:6969/announce
  • udp://ipv4.tracker.harry.lu:80/announce
  • udp://tracker.cyberia.is:6969/announce
  • udp://tracker.leechers-paradise.org:6969/announce
  • udp://tracker.opentrackr.org:1337/announce
  • udp://tracker.coppersurfer.tk:6969/announce
  • udp://tracker.pirateparty.gr:6969/announce
  • udp://9.rarbg.to:2960/announce
  • udp://9.rarbg.me:2810/announce
  • udp://tracker.tiny-vps.com:6969/announce
  • udp://tracker.open-internet.nl:6969/announce
  • udp://open.stealth.si:80/announce