Love Aaj Kal (2020) 720p NF WEBRip x264 AAC. Eng Sub

  • CategoryMovies
  • TypeBollywood
  • LanguageHindi
  • Total size1.2 GB
  • Uploaded Bykrishh1337
  • Downloads7549
  • Last checkedApr. 29th '20
  • Date uploadedApr. 27th '20
  • Seeders 251
  • Leechers109

Infohash : D2054701E363191399FBB73B01F2DE5FF9876DDF


Love Aaj Kal (2020):
UA | 2h 22min | Drama, Romance | 14 February 2020 (USA)

Two different individuals on a journey of love, loss and life through the phases of Reincarnation.

Director: Imtiaz Ali
Writer: Imtiaz Ali
Stars: Kartik Aaryan, Sara Ali Khan, Randeep Hooda.

Format : Matroska
Format version : Version 4
File size : 1.16 GiB
Duration : 2 h 19 min
Overall bit rate : 1 185 kb/s

Video
ID : 1
Format : AVC
Format/Info : Advanced Video Codec
Format profile : [email protected]
Format settings : CABAC / 4 Ref Frames
Format settings, CABAC : Yes
Format settings, Reference : 4 frames
Codec ID : V_MPEG4/ISO/AVC
Duration : 2 h 19 min
Bit rate : 1 050 kb/s
Width : 1 280 pixels
Height : 536 pixels
Display aspect ratio : 2.40:1
Frame rate mode : Constant
Frame rate : 24.000 FPS
Color space : YUV
Chroma subsampling : 4:2:0
Bit depth : 8 bits
Scan type : Progressive
Bits/(Pixel*Frame) : 0.064
Stream size : 1.03 GiB (89%)
Writing library : x264 core

Audio
ID : 2
Format : AAC LC
Format/Info : Advanced Audio Codec Low Complexity
Codec ID : A_AAC-2
Duration : 2 h 19 min
Bit rate : 126 kb/s
Channel(s) : 2 channels
Channel layout : L R
Sampling rate : 44.1 kHz
Frame rate : 43.066 FPS (1024 SPF)
Compression mode : Lossy
Delay relative to video : -21 ms
Stream size : 125 MiB (11%)
Language : Hindi
Default : Yes
Forced : No

Text
ID : 3
Format : ASS
Codec ID : S_TEXT/ASS
Codec ID/Info : Advanced Sub Station Alpha
Duration : 2 h 14 min
Bit rate : 86 b/s
Count of elements : 1423
Compression mode : Lossless
Stream size : 85.2 KiB (0%)
Language : English
Default : Yes
Forced : Yes

Files:

  • Love Aaj Kal (2020) 720p NF WEBRip x264 AAC. Eng Sub.mkv (1.2 GB)

Code:

  • udp://exodus.desync.com:6969/announce
  • http://tracker3.itzmx.com:8080/announce
  • udp://explodie.org:6969/announce
  • udp://9.rarbg.to:2800/announce
  • http://tracker3.itzmx.com:6961/announce
  • http://tracker1.itzmx.com:8080/announce
  • udp://tracker.tiny-vps.com:6969/announce
  • http://t.nyaatracker.com:80/announce
  • udp://tracker.opentrackr.org:1337/announce
  • udp://ipv4.tracker.harry.lu:80/announce
  • http://explodie.org:6969/announce
  • http://tracker.opentrackr.org:1337/announce
  • udp://tracker.leechers-paradise.org:6969/announce
  • udp://tracker.open-internet.nl:6969/announce
  • udp://tracker.coppersurfer.tk:6969/announce
  • udp://tracker.pirateparty.gr:6969/announce
  • udp://open.stealth.si:80/announce