Love Festival (Riti Riwaz) [2020] Ullu Hindi 720p WEBRip AAC

  • CategoryMovies
  • TypeBollywood
  • LanguageHindi
  • Total size385.2 MB
  • Uploaded Bykrishh1337
  • Downloads8348
  • Last checkedMay. 03rd '20
  • Date uploadedMay. 01st '20
  • Seeders 185
  • Leechers75

Infohash : 21EAF016ED2A9759C3770C0C484C454E513CE13D



Love Festival (2020):
Ek aisa anokha utsav jahan har shaadi shudha ko ek raat ke liye milta hai mauqa kisi naye humsafar ko chunne ka.
Ek anokhi dastaan Riti Riwaj “Love Festival “ Releasing on 1st May.

Cast:
Yash Pandit | Khushi Mukherjee

Format : MPEG-4
Format profile : Base Media / Version 2
Codec ID : mp42 (isom/iso2/avc1/mp41)
File size : 385 MiB
Duration : 39 min 39 s
Overall bit rate mode : Variable
Overall bit rate : 1 358 kb/s

Video
ID : 1
Format : AVC
Format/Info : Advanced Video Codec
Format profile : [email protected]
Format settings : CABAC / 4 Ref Frames
Format settings, CABAC : Yes
Format settings, Reference : 4 frames
Codec ID : avc1
Codec ID/Info : Advanced Video Coding
Duration : 39 min 39 s
Bit rate : 1 240 kb/s
Width : 1 280 pixels
Height : 720 pixels
Display aspect ratio : 16:9
Frame rate mode : Constant
Frame rate : 25.000 FPS
Color space : YUV
Chroma subsampling : 4:2:0
Bit depth : 8 bits
Scan type : Progressive
Bits/(Pixel*Frame) : 0.054
Stream size : 347 MiB (90%)
Writing library : x264 core

Audio
ID : 2
Format : AAC LC
Format/Info : Advanced Audio Codec Low Complexity
Codec ID : mp4a-40-2
Duration : 39 min 39 s
Bit rate mode : Variable
Bit rate : 128 kb/s
Channel(s) : 2 channels
Channel layout : L R
Sampling rate : 48.0 kHz
Frame rate : 46.875 FPS (1024 SPF)
Compression mode : Lossy
Stream size : 36.2 MiB (9%)
Title : Stereo / Stereo
Default : Yes

Files:

  • Love Festival (Riti Riwaz) [2020] Ullu Hindi 720p WEBRip AAC.mp4 (385.2 MB)

Code:

  • udp://exodus.desync.com:6969/announce
  • http://tracker3.itzmx.com:8080/announce
  • udp://explodie.org:6969/announce
  • udp://9.rarbg.to:2800/announce
  • http://tracker3.itzmx.com:6961/announce
  • http://tracker1.itzmx.com:8080/announce
  • udp://tracker.tiny-vps.com:6969/announce
  • http://t.nyaatracker.com:80/announce
  • udp://tracker.moeking.me:6969/announce
  • udp://tracker.torrent.eu.org:451/announce
  • udp://tracker.opentrackr.org:1337/announce
  • udp://ipv4.tracker.harry.lu:80/announce
  • http://explodie.org:6969/announce
  • http://tracker.opentrackr.org:1337/announce
  • udp://tracker.leechers-paradise.org:6969/announce
  • udp://tracker.open-internet.nl:6969/announce
  • udp://tracker.coppersurfer.tk:6969/announce
  • udp://tracker.pirateparty.gr:6969/announce
  • udp://open.stealth.si:80/announce