Hunger (2020) Hindi 720p HotShots Originals WEBRip x264 AAC 150MB - MovCr

  • CategoryXXX
  • TypeVideo
  • LanguageHindi
  • Total size143.3 MB
  • Uploaded ByMovCr
  • Downloads12631
  • Last checkedMay. 09th '20
  • Date uploadedMay. 07th '20
  • Seeders 207
  • Leechers48

Infohash : A65E6CE4BF198835E5824970005768D275BD652E

Visit Us @ https://MovCr.to


Hunger (2020) Hindi 720p HotShots Originals WEBRip x264 AAC 150MB - MovCr




Plot:
A lonely housewife Stuck in a sexless marriage, discovers that her marriage lacks passion and surprise, and is seduced by the possibility of finding those sensations already forgotten in a young man who is her tailor. She desperately wants to sexually be satisfied by her husband, but he's losing interest. Tired from trying, she falls for her tailor, unable to resist she ends up sharing a passionate relationship with him. Director: Abhijeet Harishchandra





Video
ID                                       : 1
Format                                   : AVC
Format/Info                              : Advanced Video Codec
Format profile                           : [email protected]
Format settings                          : 2 Ref Frames
Format settings, CABAC                   : No
Format settings, Reference frames        : 2 frames
Codec ID                                 : V_MPEG4/ISO/AVC
Duration                                 : 21 min 25 s
Bit rate                                 : 900 kb/s
Width                                    : 1 280 pixels
Height                                   : 532 pixels
Display aspect ratio                     : 2.40:1
Frame rate mode                          : Constant
Frame rate                               : 23.976 (23976/1000) FPS
Color space                              : YUV
Chroma subsampling                       : 4:2:0
Bit depth                                : 8 bits
Scan type                                : Progressive
Bits/(Pixel*Frame)                       : 0.055
Stream size                              : 134 MiB (94%)
Title                                    : MovCr

Audio
ID                                       : 2
Format                                   : AAC LC
Format/Info                              : Advanced Audio Codec Low Complexity
Codec ID                                 : A_AAC-2
Duration                                 : 21 min 25 s
Bit rate                                 : 56.0 kb/s
Channel(s)                               : 2 channels
Channel layout                           : L R
Sampling rate                            : 32.0 kHz
Frame rate                               : 31.250 FPS (1024 SPF)
Compression mode                         : Lossy
Delay relative to video                  : -32 ms
Stream size                              : 8.58 MiB (6%)
Title                                    : MovCr
Default                                  : Yes
Forced                                   : No
























Files:

  • (18+) www.MovCr.to - Hunger (2020) Hindi 720p HotShots Originals WEBRip x264 AAC 150MB - MovCr.mkv (143.3 MB)

Code:

  • http://tracker.nyap2p.com:8080/announce
  • udp://p4p.arenabg.com:1337/announce
  • udp://tracker.iamhansen.xyz:2000/announce
  • udp://opentor.org:2710/announce
  • http://h4.trakx.nibba.trade:80/announce
  • udp://tracker.zerobytes.xyz:1337/announce
  • https://tracker.nitrix.me:443/announce
  • udp://tracker.moeking.me:6969/announce
  • udp://tracker.leechers-paradise.org:6969/announce
  • udp://tracker.opentrackr.org:1337/announce
  • udp://tracker.coppersurfer.tk:6969/announce
  • udp://9.rarbg.to:2960/announce
  • udp://9.rarbg.me:2810/announce
  • udp://tracker.tiny-vps.com:6969/announce
  • udp://open.stealth.si:80/announce