Malang (2020) 720p WEB-Rip x264 AAC 5.1 - ESUB - Ranvijay - DUS-ICTV

  • CategoryMovies
  • TypeBollywood
  • LanguageHindi
  • Total size1.4 GB
  • Uploaded ByTheFighter
  • Downloads3208
  • Last checkedMay. 17th '20
  • Date uploadedMay. 16th '20
  • Seeders 136
  • Leechers123

Infohash : 22EC3D027A930EC4719BC65A483E8034C307AFFE



Malang (2020) 720p WEB-Rip x264 AAC 5.1 - ESUB - Ranvijay - DUS-ICTV

Visit For Direct Link http://extramovies.casa/

Source :- KamiKaze (Thanks)

General
Format : Matroska
Format version : Version 4
File size : 1.38 GiB
Duration : 2 h 11 min
Overall bit rate : 1 507 kb/s
Movie name : Malang (2020) 720p WEB-Rip x264 AAC 5.1 - ESUB - Ranvijay - DUS-ICTV

Video
ID : 1
Format : AVC
Format/Info : Advanced Video Codec
Format profile : [email protected]
Format settings : CABAC / 12 Ref Frames
Format settings, CABAC : Yes
Format settings, Reference frames : 12 frames
Codec ID : V_MPEG4/ISO/AVC
Duration : 2 h 11 min
Bit rate : 1 275 kb/s
Width : 1 280 pixels
Height : 536 pixels
Display aspect ratio : 2.40:1
Frame rate mode : Constant
Frame rate : 24.000 FPS
Color space : YUV
Chroma subsampling : 4:2:0
Bit depth : 8 bits
Scan type : Progressive
Bits/(Pixel*Frame) : 0.077
Stream size : 1.18 GiB (85%)
Title : ~Ranvijay~

Audio
ID : 2
Format : AAC LC SBR
Format/Info : Advanced Audio Codec Low Complexity with Spectral Band Replication
Commercial name : HE-AAC
Format settings : Explicit
Codec ID : A_AAC-2
Duration : 2 h 11 min
Bit rate : 221 kb/s
Channel(s) : 6 channels
Channel layout : C L R Ls Rs LFE
Sampling rate : 48.0 kHz
Frame rate : 23.438 FPS (2048 SPF)
Compression mode : Lossy
Delay relative to video : 31 ms
Stream size : 208 MiB (15%)
Title : ~Ranvijay~
Language : Hindi
Default : Yes
Forced : Yes

Text
ID : 3
Format : UTF-8
Codec ID : S_TEXT/UTF8
Codec ID/Info : UTF-8 Plain Text
Duration : 2 h 4 min
Bit rate : 43 b/s
Count of elements : 1290
Stream size : 39.6 KiB (0%)
Title : ~Ranvijay~
Language : English
Default : Yes
Forced : Yes




















Files:

Malang (2020) 720p WEB-Rip x264 AAC 5.1 - ESUB - Ranvijay - DUS-ICTV
  • Malang (2020) 720p WEB-Rip x264 AAC 5.1 - ESUB - Ranvijay - DUS-ICTV.mkv (1.4 GB)
  • Sample - Malang (2020) 720p WEB-Rip x264 AAC 5.1 - ESUB - Ranvijay - DUS-ICTV.mkv (20.5 MB)
  • Encoded From WEBPUNDITS.url (0.1 KB)
  • SpecialRDP - Premium & Affordable Web Hosting Solution.url (0.0 KB)

Code:

  • udp://tracker.coppersurfer.tk:6969/announce
  • udp://tracker.leechers-paradise.org:6969/announce
  • udp://open.stealth.si:80/announce
  • udp://exodus.desync.com:6969
  • udp://p4p.arenabg.com:1337/announce
  • udp://explodie.org:6969/announce
  • udp://tracker.opentrackr.org:1337/announce
  • udp://tracker.tiny-vps.com:6969/announce
  • udp://open.demonii.si:1337/announce
  • udp://tracker.iamhansen.xyz:2000/announce
  • udp://tracker.pirateparty.gr:6969/announce
  • udp://ipv4.tracker.harry.lu:80/announce
  • udp://tracker.cyberia.is:6969/announce
  • udp://9.rarbg.to:2710/announce
  • udp://eddie4.nl:6969/announce