Maleficent - Mistress of Evil (2019) 720p Bluray x265 10bit HEVC Dual Audio [ Hindi DD2.0 + English DD5.1 ] ESub ~dp_yakuza

  • CategoryMovies
  • TypeHEVC/x265
  • LanguageEnglish
  • Total size1.3 GB
  • Uploaded ByHevclovers
  • Downloads148
  • Last checkedMay. 17th '20
  • Date uploadedMay. 16th '20
  • Seeders 16
  • Leechers16

Maleficent: Mistress of Evil

Fantasy Adventure Family

Maleficent and her goddaughter Aurora begin to question the complex family ties that bind them as they are pulled in different directions by impending nuptials, unexpected allies, and dark new forces at play.

Infohash : A7CA297EEEA0C6EE38595686BAA3222B88857AEB

Quote:


Maleficent - Mistress of Evil (2019) 720p Bluray x265 10bit HEVC Dual Audio [ Hindi DD2.0 + English DD5.1 ] ESub ~dp_yakuza
[MoviezAddiction]

Visit & Support www.MoviezAddiction.pw





Maleficent - Mistress of Evil (2019) 720p Bluray x265 10bit HEVC Dual Audio [ Hindi DD2.0 + English DD5.1 ] ESub ~dp_yakuza
[MoviezAddiction]


Take It Or Leave It
Like Our Work Just leave Only 1 Valuable Comment
Keep Visit and Support https://moviezaddiction.pw



[Source : Audio by TeamTelly (thanks!)]

Format : Matroska
Format version : Version 4
File size : 1.26 GiB
Duration : 1 h 59 min
Overall bit rate : 1 507 kb/s
Movie name : Maleficent - Mistress of Evil (2019) 720p Bluray x265 10bit HEVC Dual Audio [ Hindi DD2.0 + English DD5.1 ] ESub [Www.MoviezAddiction.pw]
Encoded date : UTC 2020-05-16 05:41:38
Writing application : mkvmerge v46.0.0 ('No Deeper Escape') 64-bit
Writing library : libebml v1.3.10 + libmatroska v1.5.2

Video
ID : 1
Format : HEVC
Format/Info : High Efficiency Video Coding
Format profile : Main [email protected]@Main
Codec ID : V_MPEGH/ISO/HEVC
Duration : 1 h 58 min
Bit rate : 1 192 kb/s
Width : 1 280 pixels
Height : 536 pixels
Display aspect ratio : 2.40:1
Frame rate mode : Constant
Frame rate : 23.976 (24000/1001) FPS
Color space : YUV
Chroma subsampling : 4:2:0
Bit depth : 10 bits
Bits/(Pixel*Frame) : 0.072
Stream size : 1 014 MiB (79%)
Title : [Www.MoviezAddiction.pw]
Default : Yes
Forced : No

Audio #1
ID : 3
Format : AAC LC SBR
Format/Info : Advanced Audio Codec Low Complexity with Spectral Band Replication
Commercial name : HE-AAC
Format settings : Explicit
Codec ID : A_AAC-2
Duration : 1 h 59 min
Bit rate : 128 kb/s
Channel(s) : 2 channels
Channel layout : L R
Sampling rate : 96.0 kHz
Frame rate : 46.875 FPS (2048 SPF)
Compression mode : Lossy
Delay relative to video : 1 s 800 ms
Stream size : 109 MiB (8%)
Title : [Www.MoviezAddiction.pw]
Language : Hindi
Default : Yes
Forced : Yes

Audio #2
ID : 4
Format : AAC LC
Format/Info : Advanced Audio Codec Low Complexity
Codec ID : A_AAC-2
Duration : 1 h 58 min
Bit rate : 192 kb/s
Channel(s) : 6 channels
Channel layout : C L R Ls Rs LFE
Sampling rate : 48.0 kHz
Frame rate : 46.875 FPS (1024 SPF)
Compression mode : Lossy
Stream size : 161 MiB (13%)
Title : [Www.MoviezAddiction.pw]
Language : English
Default : No
Forced : No

Text
ID : 2
Format : UTF-8
Codec ID : S_TEXT/UTF8
Codec ID/Info : UTF-8 Plain Text
Duration : 1 h 53 min
Bit rate : 44 b/s
Count of elements : 1604
Stream size : 36.8 KiB (0%)
Title : [Www.MoviezAddiction.pw]
Language : English
Default : Yes
Forced : Yes

Menu
00:00:00.000 : en:Missing Faeries
00:06:47.907 : en:The Big Day
00:09:11.676 : en:"Don't Ruin My Morning"
00:14:45.551 : en:A Time To Celebrate
00:19:27.833 : en:An Evil Plan
00:23:10.556 : en:Dinner At The Castle
00:33:51.905 : en:Out Of The Sky
00:39:10.265 : en:Carried Away
00:42:19.579 : en:The Dark Fey
00:48:31.992 : en:Nest Of Origin
00:52:44.745 : en:Wedding Invitation
00:57:15.140 : en:A Different Person
00:59:26.146 : en:Underground Secrets
01:05:47.569 : en:The Wedding Day
01:09:31.751 : en:A Curse Revealed
01:19:07.242 : en:A War
01:22:48.547 : en:"Remember Who You Are"
01:29:09.219 : en:Maleficent Arrives
01:35:00.653 : en:Chaos Of War
01:44:26.510 : en:"Will You Give Me Away?"
01:51:06.994 : en:End Credits / "You Can't Stop The Girl"



Maleficent and her goddaughter Aurora begin to question the complex family ties that bind them as they are pulled in different directions by impending nuptials, unexpected allies and dark new forces at play.







Files:

  • Maleficent - Mistress of Evil (2019) 720p Bluray x265 10bit HEVC Dual Audio [ Hindi DD2.0 + English DD5.1 ] ESub 1.25GB [Www.MoviezAddiction.pw] .mkv (1.3 GB)

Code:

  • udp://tracker.openbittorrent.com:80/announce
  • udp://tracker.publicbt.com:80/announce
  • udp://tracker.coppersurfer.tk:6969/announce
  • udp://tracker.opentrackr.org:1337/announce
  • udp://tracker.leechers-paradise.org:6969/announce
  • udp://p4p.arenabg.com:1337/announce
  • udp://9.rarbg.to:2710/announce
  • udp://9.rarbg.me:2710/announce
  • udp://exodus.desync.com:6969/announce
  • udp://open.stealth.si:80/announce
  • udp://tracker.sbsub.com:2710/announce
  • udp://retracker.lanta-net.ru:2710/announce