Max Payne (2008) Unrated (1080p BDRip x265 10bit DTS-HD MA 5.1 - r0b0t) [TAoE].mkv

  • CategoryMovies
  • TypeHEVC/x265
  • LanguageEnglish
  • Total size8 GB
  • Uploaded ByGoki
  • Downloads188
  • Last checkedMay. 20th '20
  • Date uploadedMay. 19th '20
  • Seeders 20
  • Leechers12

Max Payne

Action

Coming together to solve a series of murders in New York City are a DEA agent whose family was slain as part of a conspiracy and an assassin out to avenge her sister's death. The duo will be hunted by the police, the mob, and a ruthless corporation.

Infohash : 6AFABE57F94B986FFCCFAB88054D5DA16F75FB8C






Max Payne (2008) IMDB







Source


Max.Payne.2008.Unrated.1080p.DTS-HD.MA.5.1.AVC.REMUX-FraMeSToR

Media Information


General
Unique ID : 178129943350213805931112426617690188410 (0x86029445BB41F9870BD2FA007584EA7A)
Complete name : Max Payne (2008) Unrated (1080p BDRip x265 10bit DTS-HD MA 5.1 - r0b0t) [TAoE].mkv
Format : Matroska
Format version : Version 4
File size : 7.98 GiB
Duration : 1 h 42 min
Overall bit rate mode : Variable
Overall bit rate : 11.1 Mb/s
Writing application : Lavf58.29.100
Writing library : Lavf58.29.100
ErrorDetectionType : Per level 1
IMDB : tt0467197
TMDB : movie/13051

Video
ID : 1
Format : HEVC
Format/Info : High Efficiency Video Coding
Format profile : Main [email protected]@Main
Codec ID : V_MPEGH/ISO/HEVC
Duration : 1 h 42 min
Bit rate : 5 676 kb/s
Width : 1 920 pixels
Height : 1 080 pixels
Display aspect ratio : 16:9
Frame rate mode : Constant
Frame rate : 23.976 (24000/1001) FPS
Color space : YUV
Chroma subsampling : 4:2:0
Bit depth : 10 bits
Bits/(Pixel*Frame) : 0.114
Stream size : 4.08 GiB (51%)
Title : Encoded by r0b0t for TAoE using Shinguru V1.2
Writing library : x265 3.2+35-acc5d16999e2:[Windows][GCC 9.2.1][64 bit] 10bit
Encoding settings : cpuid=1111039 / frame-threads=5 / numa-pools=12,12,12,12 / wpp / no-pmode / no-pme / no-psnr / no-ssim / log-level=2 / input-csp=1 / input-res=1920x1080 / interlace=0 / total-frames=0 / level-idc=0 / high-tier=1 / uhd-bd=0 / ref=4 / no-allow-non-conformance / no-repeat-headers / annexb / no-aud / no-hrd / info / hash=0 / no-temporal-layers / open-gop / min-keyint=23 / keyint=250 / gop-lookahead=0 / bframes=8 / b-adapt=2 / b-pyramid / bframe-bias=0 / rc-lookahead=80 / lookahead-slices=4 / scenecut=40 / hist-scenecut=0 / radl=0 / no-splice / no-intra-refresh / ctu=64 / min-cu-size=8 / no-rect / no-amp / max-tu-size=32 / tu-inter-depth=1 / tu-intra-depth=1 / limit-tu=0 / rdoq-level=2 / dynamic-rd=0.00 / no-ssim-rd / signhide / no-tskip / nr-intra=0 / nr-inter=0 / no-constrained-intra / no-strong-intra-smoothing / max-merge=3 / limit-refs=3 / limit-modes / me=3 / subme=5 / merange=57 / temporal-mvp / no-frame-dup / no-hme / weightp / no-weightb / no-analyze-src-pics / deblock=0:0 / sao / no-sao-non-deblock / rd=4 / selective-sao=4 / no-early-skip / rskip / no-fast-intra / no-tskip-fast / no-cu-lossless / no-b-intra / no-splitrd-skip / rdpenalty=0 / psy-rd=1.30 / psy-rdoq=2.00 / no-rd-refine / no-lossless / cbqpoffs=0 / crqpoffs=0 / rc=crf / crf=19.0 / qcomp=0.60 / qpstep=4 / stats-write=0 / stats-read=0 / ipratio=1.40 / pbratio=1.30 / aq-mode=4 / aq-strength=1.10 / cutree / zone-count=0 / no-strict-cbr / qg-size=32 / no-rc-grain / qpmax=69 / qpmin=0 / no-const-vbv / sar=1 / overscan=0 / videoformat=5 / range=0 / colorprim=2 / transfer=2 / colormatrix=2 / chromaloc=0 / display-window=0 / cll=0,0 / min-luma=0 / max-luma=1023 / log2-max-poc-lsb=8 / vui-timing-info / vui-hrd-info / slices=1 / no-opt-qp-pps / no-opt-ref-list-length-pps / no-multi-pass-opt-rps / scenecut-bias=0.05 / hist-threshold=0.01 / no-opt-cu-delta-qp / no-aq-motion / no-hdr10 / no-hdr10-opt / no-dhdr10-opt / no-idr-recovery-sei / analysis-reuse-level=0 / analysis-save-reuse-level=0 / analysis-load-reuse-level=0 / scale-factor=0 / refine-intra=0 / refine-inter=0 / refine-mv=1 / refine-ctu-distortion=0 / no-limit-sao / ctu-info=0 / no-lowpass-dct / refine-analysis-type=0 / copy-pic=1 / max-ausize-factor=1.0 / no-dynamic-refine / no-single-sei / no-hevc-aq / no-svt / no-field / qp-adaptation-range=1.00 / no-scenecut-aware-qpconformance-window-offsets / right=0 / bottom=0
Default : Yes
Forced : No
Color range : Limited

Audio #1
ID : 2
Format : DTS XLL
Format/Info : Digital Theater Systems
Commercial name : DTS-HD Master Audio
Codec ID : A_DTS
Duration : 1 h 42 min
Bit rate mode : Variable
Bit rate : 4 070 kb/s
Channel(s) : 6 channels
Channel layout : C L R Ls Rs LFE
Sampling rate : 48.0 kHz
Frame rate : 93.750 FPS (512 SPF)
Bit depth : 24 bits
Compression mode : Lossless
Stream size : 2.93 GiB (37%)
Language : English
Default : Yes
Forced : No

Audio #2
ID : 3
Format : AC-3
Format/Info : Audio Coding 3
Commercial name : Dolby Digital
Codec ID : A_AC3
Duration : 1 h 42 min
Bit rate mode : Constant
Bit rate : 224 kb/s
Channel(s) : 2 channels
Channel layout : L R
Sampling rate : 48.0 kHz
Frame rate : 31.250 FPS (1536 SPF)
Bit depth : 32 bits
Compression mode : Lossy
Stream size : 165 MiB (2%)
Title : Commentary by director John Moore, production designer Daniel Dorrance and visual effects supervisor Everett Burrell
Language : English
Service kind : Complete Main
Default : No
Forced : No

Text #1
ID : 4
Format : PGS
Codec ID : S_HDMV/PGS
Codec ID/Info : Picture based subtitle format used on BDs/HD-DVDs
Duration : 11 min 4 s
Bit rate : 2 111 b/s
Count of elements : 24
Stream size : 171 KiB (0%)
Title : English (Forced)
Language : English
Default : No
Forced : Yes

Text #2
ID : 5
Format : PGS
Codec ID : S_HDMV/PGS
Codec ID/Info : Picture based subtitle format used on BDs/HD-DVDs
Duration : 1 h 41 min
Bit rate : 23.2 kb/s
Count of elements : 1600
Stream size : 16.9 MiB (0%)
Title : English
Language : English
Default : No
Forced : No

Text #3
ID : 6
Format : PGS
Codec ID : S_HDMV/PGS
Codec ID/Info : Picture based subtitle format used on BDs/HD-DVDs
Duration : 1 h 41 min
Bit rate : 25.4 kb/s
Count of elements : 1752
Stream size : 18.5 MiB (0%)
Title : English (SDH)
Language : English
Default : No
Forced : No

Text #4
ID : 7
Format : PGS
Codec ID : S_HDMV/PGS
Codec ID/Info : Picture based subtitle format used on BDs/HD-DVDs
Duration : 1 h 42 min
Bit rate : 12.9 kb/s
Count of elements : 1641
Stream size : 9.41 MiB (0%)
Title : Arabic
Language : Arabic
Default : No
Forced : No

Text #5
ID : 8
Format : PGS
Codec ID : S_HDMV/PGS
Codec ID/Info : Picture based subtitle format used on BDs/HD-DVDs
Duration : 1 h 42 min
Bit rate : 19.3 kb/s
Count of elements : 1591
Stream size : 14.1 MiB (0%)
Title : Bulgarian
Language : Bulgarian
Default : No
Forced : No

Text #6
ID : 9
Format : PGS
Codec ID : S_HDMV/PGS
Codec ID/Info : Picture based subtitle format used on BDs/HD-DVDs
Duration : 1 h 42 min
Bit rate : 20.6 kb/s
Count of elements : 1633
Stream size : 15.0 MiB (0%)
Title : Croatian
Language : Croatian
Default : No
Forced : No

Text #7
ID : 10
Format : PGS
Codec ID : S_HDMV/PGS
Codec ID/Info : Picture based subtitle format used on BDs/HD-DVDs
Duration : 1 h 42 min
Bit rate : 21.9 kb/s
Count of elements : 1631
Stream size : 16.0 MiB (0%)
Title : Danish
Language : Danish
Default : No
Forced : No

Text #8
ID : 11
Format : PGS
Codec ID : S_HDMV/PGS
Codec ID/Info : Picture based subtitle format used on BDs/HD-DVDs
Duration : 1 h 42 min
Bit rate : 18.9 kb/s
Count of elements : 1631
Stream size : 13.8 MiB (0%)
Title : Dutch
Language : Dutch
Default : No
Forced : No

Text #9
ID : 12
Format : PGS
Codec ID : S_HDMV/PGS
Codec ID/Info : Picture based subtitle format used on BDs/HD-DVDs
Duration : 1 h 42 min
Bit rate : 19.4 kb/s
Count of elements : 1513
Stream size : 14.2 MiB (0%)
Title : Estonian
Language : Estonian
Default : No
Forced : No

Text #10
ID : 13
Format : PGS
Codec ID : S_HDMV/PGS
Codec ID/Info : Picture based subtitle format used on BDs/HD-DVDs
Duration : 1 h 42 min
Bit rate : 16.8 kb/s
Count of elements : 1545
Stream size : 12.2 MiB (0%)
Title : Finnish
Language : Finnish
Default : No
Forced : No

Text #11
ID : 14
Format : PGS
Codec ID : S_HDMV/PGS
Codec ID/Info : Picture based subtitle format used on BDs/HD-DVDs
Duration : 1 h 42 min
Bit rate : 26.0 kb/s
Count of elements : 1632
Stream size : 19.0 MiB (0%)
Title : German
Language : German
Default : No
Forced : No

Text #12
ID : 15
Format : PGS
Codec ID : S_HDMV/PGS
Codec ID/Info : Picture based subtitle format used on BDs/HD-DVDs
Duration : 1 h 42 min
Bit rate : 15.1 kb/s
Count of elements : 1643
Stream size : 11.0 MiB (0%)
Title : Hebrew
Language : Hebrew
Default : No
Forced : No

Text #13
ID : 16
Format : PGS
Codec ID : S_HDMV/PGS
Codec ID/Info : Picture based subtitle format used on BDs/HD-DVDs
Duration : 1 h 42 min
Bit rate : 22.8 kb/s
Count of elements : 1633
Stream size : 16.6 MiB (0%)
Title : Icelandic
Language : Icelandic
Default : No
Forced : No

Text #14
ID : 17
Format : PGS
Codec ID : S_HDMV/PGS
Codec ID/Info : Picture based subtitle format used on BDs/HD-DVDs
Duration : 1 h 42 min
Bit rate : 22.4 kb/s
Count of elements : 1632
Stream size : 16.4 MiB (0%)
Title : Italian
Language : Italian
Default : No
Forced : No

Text #15
ID : 18
Format : PGS
Codec ID : S_HDMV/PGS
Codec ID/Info : Picture based subtitle format used on BDs/HD-DVDs
Duration : 1 h 42 min
Bit rate : 16.9 kb/s
Count of elements : 1499
Stream size : 12.3 MiB (0%)
Title : Latvian
Language : Latvian
Default : No
Forced : No

Text #16
ID : 19
Format : PGS
Codec ID : S_HDMV/PGS
Codec ID/Info : Picture based subtitle format used on BDs/HD-DVDs
Duration : 1 h 42 min
Bit rate : 19.6 kb/s
Count of elements : 1563
Stream size : 14.3 MiB (0%)
Title : Lithuanian
Language : Lithuanian
Default : No
Forced : No

Text #17
ID : 20
Format : PGS
Codec ID : S_HDMV/PGS
Codec ID/Info : Picture based subtitle format used on BDs/HD-DVDs
Duration : 1 h 42 min
Bit rate : 18.4 kb/s
Count of elements : 1401
Stream size : 13.4 MiB (0%)
Title : Greek
Language : Greek
Default : No
Forced : No

Text #18
ID : 21
Format : PGS
Codec ID : S_HDMV/PGS
Codec ID/Info : Picture based subtitle format used on BDs/HD-DVDs
Duration : 1 h 42 min
Bit rate : 21.3 kb/s
Count of elements : 1633
Stream size : 15.6 MiB (0%)
Title : Norwegian
Language : Norwegian
Default : No
Forced : No

Text #19
ID : 22
Format : PGS
Codec ID : S_HDMV/PGS
Codec ID/Info : Picture based subtitle format used on BDs/HD-DVDs
Duration : 1 h 42 min
Bit rate : 22.6 kb/s
Count of elements : 1635
Stream size : 16.5 MiB (0%)
Title : Portuguese (Iberian)
Language : Portuguese
Default : No
Forced : No

Text #20
ID : 23
Format : PGS
Codec ID : S_HDMV/PGS
Codec ID/Info : Picture based subtitle format used on BDs/HD-DVDs
Duration : 1 h 42 min
Bit rate : 18.2 kb/s
Count of elements : 1491
Stream size : 13.3 MiB (0%)
Title : Polish
Language : Polish
Default : No
Forced : No

Text #21
ID : 24
Format : PGS
Codec ID : S_HDMV/PGS
Codec ID/Info : Picture based subtitle format used on BDs/HD-DVDs
Duration : 1 h 42 min
Bit rate : 19.8 kb/s
Count of elements : 1637
Stream size : 14.5 MiB (0%)
Title : Romanian
Language : Romanian
Default : No
Forced : No

Text #22
ID : 25
Format : PGS
Codec ID : S_HDMV/PGS
Codec ID/Info : Picture based subtitle format used on BDs/HD-DVDs
Duration : 1 h 42 min
Bit rate : 21.6 kb/s
Count of elements : 1637
Stream size : 15.8 MiB (0%)
Title : Serbian
Language : Serbian
Default : No
Forced : No

Text #23
ID : 26
Format : PGS
Codec ID : S_HDMV/PGS
Codec ID/Info : Picture based subtitle format used on BDs/HD-DVDs
Duration : 1 h 41 min
Bit rate : 16.9 kb/s
Count of elements : 1575
Stream size : 12.3 MiB (0%)
Title : Slovenian
Language : Slovenian
Default : No
Forced : No

Text #24
ID : 27
Format : PGS
Codec ID : S_HDMV/PGS
Codec ID/Info : Picture based subtitle format used on BDs/HD-DVDs
Duration : 1 h 42 min
Bit rate : 22.1 kb/s
Count of elements : 1634
Stream size : 16.2 MiB (0%)
Title : Spanish (Castilian)
Language : Spanish
Default : No
Forced : No

Text #25
ID : 28
Format : PGS
Codec ID : S_HDMV/PGS
Codec ID/Info : Picture based subtitle format used on BDs/HD-DVDs
Duration : 1 h 42 min
Bit rate : 21.2 kb/s
Count of elements : 1637
Stream size : 15.5 MiB (0%)
Title : Swedish
Language : Swedish
Default : No
Forced : No

Text #26
ID : 29
Format : PGS
Codec ID : S_HDMV/PGS
Codec ID/Info : Picture based subtitle format used on BDs/HD-DVDs
Duration : 1 h 42 min
Bit rate : 22.5 kb/s
Count of elements : 1591
Stream size : 16.4 MiB (0%)
Title : Turkish
Language : Turkish
Default : No
Forced : No

Text #27
ID : 30
Format : PGS
Codec ID : S_HDMV/PGS
Codec ID/Info : Picture based subtitle format used on BDs/HD-DVDs
Duration : 1 h 41 min
Bit rate : 67.6 kb/s
Count of elements : 3137
Stream size : 49.3 MiB (1%)
Title : English (Commentary)
Language : English
Default : No
Forced : No

Text #28
ID : 31
Format : PGS
Codec ID : S_HDMV/PGS
Codec ID/Info : Picture based subtitle format used on BDs/HD-DVDs
Duration : 1 h 42 min
Bit rate : 55.6 kb/s
Count of elements : 3045
Stream size : 40.6 MiB (0%)
Title : Danish (Commentary)
Language : Danish
Default : No
Forced : No

Text #29
ID : 32
Format : PGS
Codec ID : S_HDMV/PGS
Codec ID/Info : Picture based subtitle format used on BDs/HD-DVDs
Duration : 1 h 42 min
Bit rate : 52.8 kb/s
Count of elements : 3045
Stream size : 38.6 MiB (0%)
Title : Dutch (Commentary)
Language : Dutch
Default : No
Forced : No

Text #30
ID : 33
Format : PGS
Codec ID : S_HDMV/PGS
Codec ID/Info : Picture based subtitle format used on BDs/HD-DVDs
Duration : 1 h 42 min
Bit rate : 50.4 kb/s
Count of elements : 3045
Stream size : 36.8 MiB (0%)
Title : Finnish (Commentary)
Language : Finnish
Default : No
Forced : No

Text #31
ID : 34
Format : PGS
Codec ID : S_HDMV/PGS
Codec ID/Info : Picture based subtitle format used on BDs/HD-DVDs
Duration : 1 h 42 min
Bit rate : 54.0 kb/s
Count of elements : 3046
Stream size : 39.6 MiB (0%)
Title : French (Commentary)
Language : French
Default : No
Forced : No

Text #32
ID : 35
Format : PGS
Codec ID : S_HDMV/PGS
Codec ID/Info : Picture based subtitle format used on BDs/HD-DVDs
Duration : 1 h 42 min
Bit rate : 60.6 kb/s
Count of elements : 3044
Stream size : 44.3 MiB (1%)
Title : German (Commentary)
Language : German
Default : No
Forced : No

Text #33
ID : 36
Format : PGS
Codec ID : S_HDMV/PGS
Codec ID/Info : Picture based subtitle format used on BDs/HD-DVDs
Duration : 1 h 42 min
Bit rate : 55.5 kb/s
Count of elements : 3044
Stream size : 40.6 MiB (0%)
Title : Italian (Commentary)
Language : Italian
Default : No
Forced : No

Text #34
ID : 37
Format : PGS
Codec ID : S_HDMV/PGS
Codec ID/Info : Picture based subtitle format used on BDs/HD-DVDs
Duration : 1 h 42 min
Bit rate : 52.4 kb/s
Count of elements : 3045
Stream size : 38.3 MiB (0%)
Title : Norwegian (Commentary)
Language : Norwegian
Default : No
Forced : No

Text #35
ID : 38
Format : PGS
Codec ID : S_HDMV/PGS
Codec ID/Info : Picture based subtitle format used on BDs/HD-DVDs
Duration : 1 h 42 min
Bit rate : 64.1 kb/s
Count of elements : 3044
Stream size : 46.8 MiB (1%)
Title : Russian (Commentary)
Language : Russian
Default : No
Forced : No

Text #36
ID : 39
Format : PGS
Codec ID : S_HDMV/PGS
Codec ID/Info : Picture based subtitle format used on BDs/HD-DVDs
Duration : 1 h 42 min
Bit rate : 58.5 kb/s
Count of elements : 3044
Stream size : 42.7 MiB (1%)
Title : Spanish (Commentary)
Language : Spanish
Default : No
Forced : No

Text #37
ID : 40
Format : PGS
Codec ID : S_HDMV/PGS
Codec ID/Info : Picture based subtitle format used on BDs/HD-DVDs
Duration : 1 h 42 min
Bit rate : 49.4 kb/s
Count of elements : 3047
Stream size : 36.2 MiB (0%)
Title : Swedish (Commentary)
Language : Swedish
Default : No
Forced : No

Menu
00:00:00.000 : :Drowning
00:01:55.741 : :Cold Case Unit
00:04:15.672 : :Nice Watch
00:08:23.461 : :New Friends
00:13:49.203 : :Natasha
00:17:04.732 : :Crime Scene
00:21:18.360 : :Connections
00:23:20.649 : :Too Late
00:26:25.417 : :Grief and Blame
00:30:33.206 : :Internal Affairs
00:32:48.425 : :Tattoo Link
00:34:54.634 : :Unlikely Ally
00:37:36.087 : :Valkyrie Protection
00:44:08.855 : :Devil's Army
00:50:37.660 : :Ten Minutes
00:55:12.809 : :Jason Tells All
01:01:41.948 : :Firefight
01:04:22.150 : :Combat Edge
01:07:55.655 : :Invincible
01:15:17.054 : :Kingpin
01:18:05.848 : :Not Yet
01:21:21.418 : :Valkyr Effects
01:23:03.812 : :On The Run
01:26:23.470 : :Unstoppable
01:29:02.128 : :Showdown
01:33:31.105 : :Angel Vision
01:35:18.338 : :End Titles
01:41:18.698 : :Unfinished Business

Source Information


General
Unique ID : 162309095284309787139677691923668596203 (0x7A1B983D4E2B1AF4E5F983928796F5EB)
Complete name : Max.Payne.2008.Unrated.1080p.DTS-HD.MA.5.1.AVC.REMUX-FraMeSToR.mkv
Format : Matroska
Format version : Version 4
File size : 19.8 GiB
Duration : 1 h 42 min
Overall bit rate mode : Variable
Overall bit rate : 27.5 Mb/s
Encoded date : UTC 2020-05-13 19:12:05
Writing application : mkvmerge v37.0.0 ('Leave It') 64-bit
Writing library : libebml v1.3.9 + libmatroska v1.5.2
IMDB : tt0467197
TMDB : movie/13051

Video
ID : 1
Format : AVC
Format/Info : Advanced Video Codec
Format profile : [email protected]
Format settings : CABAC / 2 Ref Frames
Format settings, CABAC : Yes
Format settings, Reference : 2 frames
Codec ID : V_MPEG4/ISO/AVC
Duration : 1 h 42 min
Bit rate mode : Variable
Bit rate : 22.1 Mb/s
Width : 1 920 pixels
Height : 1 080 pixels
Display aspect ratio : 16:9
Frame rate mode : Constant
Frame rate : 23.976 (24000/1001) FPS
Color space : YUV
Chroma subsampling : 4:2:0
Bit depth : 8 bits
Scan type : Progressive
Bits/(Pixel*Frame) : 0.445
Stream size : 15.9 GiB (80%)
Default : Yes
Forced : No

Audio #1
ID : 2
Format : DTS XLL
Format/Info : Digital Theater Systems
Commercial name : DTS-HD Master Audio
Codec ID : A_DTS
Duration : 1 h 42 min
Bit rate mode : Variable
Bit rate : 4 070 kb/s
Channel(s) : 6 channels
Channel layout : C L R Ls Rs LFE
Sampling rate : 48.0 kHz
Frame rate : 93.750 FPS (512 SPF)
Bit depth : 24 bits
Compression mode : Lossless
Stream size : 2.93 GiB (15%)
Language : English
Default : Yes
Forced : No

Audio #2
ID : 3
Format : AC-3
Format/Info : Audio Coding 3
Commercial name : Dolby Digital
Codec ID : A_AC3
Duration : 1 h 42 min
Bit rate mode : Constant
Bit rate : 224 kb/s
Channel(s) : 2 channels
Channel layout : L R
Sampling rate : 48.0 kHz
Frame rate : 31.250 FPS (1536 SPF)
Compression mode : Lossy
Stream size : 165 MiB (1%)
Title : Commentary by director John Moore, production designer Daniel Dorrance and visual effects supervisor Everett Burrell
Language : English
Service kind : Complete Main
Default : No
Forced : No

Text #1
ID : 4
Format : PGS
Codec ID : S_HDMV/PGS
Codec ID/Info : Picture based subtitle format used on BDs/HD-DVDs
Duration : 11 min 4 s
Bit rate : 2 111 b/s
Count of elements : 24
Stream size : 171 KiB (0%)
Title : English (Forced)
Language : English
Default : No
Forced : Yes

Text #2
ID : 5
Format : PGS
Codec ID : S_HDMV/PGS
Codec ID/Info : Picture based subtitle format used on BDs/HD-DVDs
Duration : 1 h 41 min
Bit rate : 23.2 kb/s
Count of elements : 1600
Stream size : 16.9 MiB (0%)
Title : English
Language : English
Default : No
Forced : No

Text #3
ID : 6
Format : PGS
Codec ID : S_HDMV/PGS
Codec ID/Info : Picture based subtitle format used on BDs/HD-DVDs
Duration : 1 h 41 min
Bit rate : 25.4 kb/s
Count of elements : 1752
Stream size : 18.5 MiB (0%)
Title : English (SDH)
Language : English
Default : No
Forced : No

Text #4
ID : 7
Format : PGS
Codec ID : S_HDMV/PGS
Codec ID/Info : Picture based subtitle format used on BDs/HD-DVDs
Duration : 1 h 42 min
Bit rate : 12.9 kb/s
Count of elements : 1641
Stream size : 9.41 MiB (0%)
Title : Arabic
Language : Arabic
Default : No
Forced : No

Text #5
ID : 8
Format : PGS
Codec ID : S_HDMV/PGS
Codec ID/Info : Picture based subtitle format used on BDs/HD-DVDs
Duration : 1 h 42 min
Bit rate : 19.3 kb/s
Count of elements : 1591
Stream size : 14.1 MiB (0%)
Title : Bulgarian
Language : Bulgarian
Default : No
Forced : No

Text #6
ID : 9
Format : PGS
Codec ID : S_HDMV/PGS
Codec ID/Info : Picture based subtitle format used on BDs/HD-DVDs
Duration : 1 h 42 min
Bit rate : 20.6 kb/s
Count of elements : 1633
Stream size : 15.0 MiB (0%)
Title : Croatian
Language : Croatian
Default : No
Forced : No

Text #7
ID : 10
Format : PGS
Codec ID : S_HDMV/PGS
Codec ID/Info : Picture based subtitle format used on BDs/HD-DVDs
Duration : 1 h 42 min
Bit rate : 21.9 kb/s
Count of elements : 1631
Stream size : 16.0 MiB (0%)
Title : Danish
Language : Danish
Default : No
Forced : No

Text #8
ID : 11
Format : PGS
Codec ID : S_HDMV/PGS
Codec ID/Info : Picture based subtitle format used on BDs/HD-DVDs
Duration : 1 h 42 min
Bit rate : 18.9 kb/s
Count of elements : 1631
Stream size : 13.8 MiB (0%)
Title : Dutch
Language : Dutch
Default : No
Forced : No

Text #9
ID : 12
Format : PGS
Codec ID : S_HDMV/PGS
Codec ID/Info : Picture based subtitle format used on BDs/HD-DVDs
Duration : 1 h 42 min
Bit rate : 19.4 kb/s
Count of elements : 1513
Stream size : 14.2 MiB (0%)
Title : Estonian
Language : Estonian
Default : No
Forced : No

Text #10
ID : 13
Format : PGS
Codec ID : S_HDMV/PGS
Codec ID/Info : Picture based subtitle format used on BDs/HD-DVDs
Duration : 1 h 42 min
Bit rate : 16.8 kb/s
Count of elements : 1545
Stream size : 12.2 MiB (0%)
Title : Finnish
Language : Finnish
Default : No
Forced : No

Text #11
ID : 14
Format : PGS
Codec ID : S_HDMV/PGS
Codec ID/Info : Picture based subtitle format used on BDs/HD-DVDs
Duration : 1 h 42 min
Bit rate : 26.0 kb/s
Count of elements : 1632
Stream size : 19.0 MiB (0%)
Title : German
Language : German
Default : No
Forced : No

Text #12
ID : 15
Format : PGS
Codec ID : S_HDMV/PGS
Codec ID/Info : Picture based subtitle format used on BDs/HD-DVDs
Duration : 1 h 42 min
Bit rate : 15.1 kb/s
Count of elements : 1643
Stream size : 11.0 MiB (0%)
Title : Hebrew
Language : Hebrew
Default : No
Forced : No

Text #13
ID : 16
Format : PGS
Codec ID : S_HDMV/PGS
Codec ID/Info : Picture based subtitle format used on BDs/HD-DVDs
Duration : 1 h 42 min
Bit rate : 22.8 kb/s
Count of elements : 1633
Stream size : 16.6 MiB (0%)
Title : Icelandic
Language : Icelandic
Default : No
Forced : No

Text #14
ID : 17
Format : PGS
Codec ID : S_HDMV/PGS
Codec ID/Info : Picture based subtitle format used on BDs/HD-DVDs
Duration : 1 h 42 min
Bit rate : 22.4 kb/s
Count of elements : 1632
Stream size : 16.4 MiB (0%)
Title : Italian
Language : Italian
Default : No
Forced : No

Text #15
ID : 18
Format : PGS
Codec ID : S_HDMV/PGS
Codec ID/Info : Picture based subtitle format used on BDs/HD-DVDs
Duration : 1 h 42 min
Bit rate : 16.9 kb/s
Count of elements : 1499
Stream size : 12.3 MiB (0%)
Title : Latvian
Language : Latvian
Default : No
Forced : No

Text #16
ID : 19
Format : PGS
Codec ID : S_HDMV/PGS
Codec ID/Info : Picture based subtitle format used on BDs/HD-DVDs
Duration : 1 h 42 min
Bit rate : 19.6 kb/s
Count of elements : 1563
Stream size : 14.3 MiB (0%)
Title : Lithuanian
Language : Lithuanian
Default : No
Forced : No

Text #17
ID : 20
Format : PGS
Codec ID : S_HDMV/PGS
Codec ID/Info : Picture based subtitle format used on BDs/HD-DVDs
Duration : 1 h 42 min
Bit rate : 18.4 kb/s
Count of elements : 1401
Stream size : 13.4 MiB (0%)
Title : Greek
Language : Greek
Default : No
Forced : No

Text #18
ID : 21
Format : PGS
Codec ID : S_HDMV/PGS
Codec ID/Info : Picture based subtitle format used on BDs/HD-DVDs
Duration : 1 h 42 min
Bit rate : 21.3 kb/s
Count of elements : 1633
Stream size : 15.6 MiB (0%)
Title : Norwegian
Language : Norwegian
Default : No
Forced : No

Text #19
ID : 22
Format : PGS
Codec ID : S_HDMV/PGS
Codec ID/Info : Picture based subtitle format used on BDs/HD-DVDs
Duration : 1 h 42 min
Bit rate : 22.6 kb/s
Count of elements : 1635
Stream size : 16.5 MiB (0%)
Title : Portuguese (Iberian)
Language : Portuguese
Default : No
Forced : No

Text #20
ID : 23
Format : PGS
Codec ID : S_HDMV/PGS
Codec ID/Info : Picture based subtitle format used on BDs/HD-DVDs
Duration : 1 h 42 min
Bit rate : 18.2 kb/s
Count of elements : 1491
Stream size : 13.3 MiB (0%)
Title : Polish
Language : Polish
Default : No
Forced : No

Text #21
ID : 24
Format : PGS
Codec ID : S_HDMV/PGS
Codec ID/Info : Picture based subtitle format used on BDs/HD-DVDs
Duration : 1 h 42 min
Bit rate : 19.8 kb/s
Count of elements : 1637
Stream size : 14.5 MiB (0%)
Title : Romanian
Language : Romanian
Default : No
Forced : No

Text #22
ID : 25
Format : PGS
Codec ID : S_HDMV/PGS
Codec ID/Info : Picture based subtitle format used on BDs/HD-DVDs
Duration : 1 h 42 min
Bit rate : 21.6 kb/s
Count of elements : 1637
Stream size : 15.8 MiB (0%)
Title : Serbian
Language : Serbian
Default : No
Forced : No

Text #23
ID : 26
Format : PGS
Codec ID : S_HDMV/PGS
Codec ID/Info : Picture based subtitle format used on BDs/HD-DVDs
Duration : 1 h 41 min
Bit rate : 16.9 kb/s
Count of elements : 1575
Stream size : 12.3 MiB (0%)
Title : Slovenian
Language : Slovenian
Default : No
Forced : No

Text #24
ID : 27
Format : PGS
Codec ID : S_HDMV/PGS
Codec ID/Info : Picture based subtitle format used on BDs/HD-DVDs
Duration : 1 h 42 min
Bit rate : 22.1 kb/s
Count of elements : 1634
Stream size : 16.2 MiB (0%)
Title : Spanish (Castilian)
Language : Spanish
Default : No
Forced : No

Text #25
ID : 28
Format : PGS
Codec ID : S_HDMV/PGS
Codec ID/Info : Picture based subtitle format used on BDs/HD-DVDs
Duration : 1 h 42 min
Bit rate : 21.2 kb/s
Count of elements : 1637
Stream size : 15.5 MiB (0%)
Title : Swedish
Language : Swedish
Default : No
Forced : No

Text #26
ID : 29
Format : PGS
Codec ID : S_HDMV/PGS
Codec ID/Info : Picture based subtitle format used on BDs/HD-DVDs
Duration : 1 h 42 min
Bit rate : 22.5 kb/s
Count of elements : 1591
Stream size : 16.4 MiB (0%)
Title : Turkish
Language : Turkish
Default : No
Forced : No

Text #27
ID : 30
Format : PGS
Codec ID : S_HDMV/PGS
Codec ID/Info : Picture based subtitle format used on BDs/HD-DVDs
Duration : 1 h 41 min
Bit rate : 67.6 kb/s
Count of elements : 3137
Stream size : 49.3 MiB (0%)
Title : English (Commentary)
Language : English
Default : No
Forced : No

Text #28
ID : 31
Format : PGS
Codec ID : S_HDMV/PGS
Codec ID/Info : Picture based subtitle format used on BDs/HD-DVDs
Duration : 1 h 42 min
Bit rate : 55.6 kb/s
Count of elements : 3045
Stream size : 40.6 MiB (0%)
Title : Danish (Commentary)
Language : Danish
Default : No
Forced : No

Text #29
ID : 32
Format : PGS
Codec ID : S_HDMV/PGS
Codec ID/Info : Picture based subtitle format used on BDs/HD-DVDs
Duration : 1 h 42 min
Bit rate : 52.8 kb/s
Count of elements : 3045
Stream size : 38.6 MiB (0%)
Title : Dutch (Commentary)
Language : Dutch
Default : No
Forced : No

Text #30
ID : 33
Format : PGS
Codec ID : S_HDMV/PGS
Codec ID/Info : Picture based subtitle format used on BDs/HD-DVDs
Duration : 1 h 42 min
Bit rate : 50.4 kb/s
Count of elements : 3045
Stream size : 36.8 MiB (0%)
Title : Finnish (Commentary)
Language : Finnish
Default : No
Forced : No

Text #31
ID : 34
Format : PGS
Codec ID : S_HDMV/PGS
Codec ID/Info : Picture based subtitle format used on BDs/HD-DVDs
Duration : 1 h 42 min
Bit rate : 54.0 kb/s
Count of elements : 3046
Stream size : 39.6 MiB (0%)
Title : French (Commentary)
Language : French
Default : No
Forced : No

Text #32
ID : 35
Format : PGS
Codec ID : S_HDMV/PGS
Codec ID/Info : Picture based subtitle format used on BDs/HD-DVDs
Duration : 1 h 42 min
Bit rate : 60.6 kb/s
Count of elements : 3044
Stream size : 44.3 MiB (0%)
Title : German (Commentary)
Language : German
Default : No
Forced : No

Text #33
ID : 36
Format : PGS
Codec ID : S_HDMV/PGS
Codec ID/Info : Picture based subtitle format used on BDs/HD-DVDs
Duration : 1 h 42 min
Bit rate : 55.5 kb/s
Count of elements : 3044
Stream size : 40.6 MiB (0%)
Title : Italian (Commentary)
Language : Italian
Default : No
Forced : No

Text #34
ID : 37
Format : PGS
Codec ID : S_HDMV/PGS
Codec ID/Info : Picture based subtitle format used on BDs/HD-DVDs
Duration : 1 h 42 min
Bit rate : 52.4 kb/s
Count of elements : 3045
Stream size : 38.3 MiB (0%)
Title : Norwegian (Commentary)
Language : Norwegian
Default : No
Forced : No

Text #35
ID : 38
Format : PGS
Codec ID : S_HDMV/PGS
Codec ID/Info : Picture based subtitle format used on BDs/HD-DVDs
Duration : 1 h 42 min
Bit rate : 64.1 kb/s
Count of elements : 3044
Stream size : 46.8 MiB (0%)
Title : Russian (Commentary)
Language : Russian
Default : No
Forced : No

Text #36
ID : 39
Format : PGS
Codec ID : S_HDMV/PGS
Codec ID/Info : Picture based subtitle format used on BDs/HD-DVDs
Duration : 1 h 42 min
Bit rate : 58.5 kb/s
Count of elements : 3044
Stream size : 42.7 MiB (0%)
Title : Spanish (Commentary)
Language : Spanish
Default : No
Forced : No

Text #37
ID : 40
Format : PGS
Codec ID : S_HDMV/PGS
Codec ID/Info : Picture based subtitle format used on BDs/HD-DVDs
Duration : 1 h 42 min
Bit rate : 49.4 kb/s
Count of elements : 3047
Stream size : 36.2 MiB (0%)
Title : Swedish (Commentary)
Language : Swedish
Default : No
Forced : No

Menu
00:00:00.000 : en:Drowning
00:01:55.741 : en:Cold Case Unit
00:04:15.672 : en:Nice Watch
00:08:23.461 : en:New Friends
00:13:49.203 : en:Natasha
00:17:04.732 : en:Crime Scene
00:21:18.360 : en:Connections
00:23:20.649 : en:Too Late
00:26:25.417 : en:Grief and Blame
00:30:33.206 : en:Internal Affairs
00:32:48.425 : en:Tattoo Link
00:34:54.634 : en:Unlikely Ally
00:37:36.087 : en:Valkyrie Protection
00:44:08.855 : en:Devil's Army
00:50:37.660 : en:Ten Minutes
00:55:12.809 : en:Jason Tells All
01:01:41.948 : en:Firefight
01:04:22.150 : en:Combat Edge
01:07:55.655 : en:Invincible
01:15:17.054 : en:Kingpin
01:18:05.848 : en:Not Yet
01:21:21.418 : en:Valkyr Effects
01:23:03.812 : en:On The Run
01:26:23.470 : en:Unstoppable
01:29:02.128 : en:Showdown
01:33:31.105 : en:Angel Vision
01:35:18.338 : en:End Titles
01:41:18.698 : en:Unfinished Business

Hello everyone,
We are TAoE, a small team of passionate encoders who love encoding. We try our best to provide you with high quality releases.
If you would like to join the team just drop us a comment or send us a message.




.........................................................................................................................................

Files:

  • Max Payne (2008) Unrated (1080p BDRip x265 10bit DTS-HD MA 5.1 - r0b0t) [TAoE].mkv (8.0 GB)

Code:

  • udp://tracker.coppersurfer.tk:6969/announce
  • udp://tracker.internetwarriors.net:1337/announce
  • http://tracker.opentrackr.org:1337/announce
  • udp://denis.stalker.upeer.me:6969/announce
  • udp://tracker.internetwarriors.net:1337
  • udp://9.rarbg.me:2720/announce
  • udp://explodie.org:6969/announce
  • udp://tracker.cyberia.is:6969/announce
  • udp://thetracker.org/announce
  • udp://open.demonii.si:1337/announce