The Eiger Sanction - Assassinio sull'Eiger (1975) UNCUT.1080p.H264.ita.eng.Ac3-sub.ita.forced ita.eng-MIRCrew

  • CategoryMovies
  • TypeHD
  • LanguageEnglish
  • Total size2.8 GB
  • Uploaded Byrobbyrs
  • Downloads64
  • Last checkedMay. 20th '20
  • Date uploadedMay. 19th '20
  • Seeders 23
  • Leechers13

Infohash : 4A057EDB60F3DC969371F6922792F381D8F4F951

Assassinio sull'Eiger - The Eiger Sanction (1975) UNCUT.1080p.H264.ita.eng.Ac3-sub.ita.forced ita.eng-MIRCrew


NO FOUND ONLY ORIGINAL RELEASE

PRESENTI I SOTTOTITOLI ITALIANI PER LE PARTI NON TRADOTTE

My release is always in double track audio italian and Original audio
for select it use VLC or dvd player home
not use wmp

Assassinio sull'Eiger - The Eiger Sanction (1975)

Quality MIRCrew on HD 1080p da 2,8 gb









Titolo originale The Eiger Sanction
Lingua originale inglese
Paese di produzione Stati Uniti d'America
Anno 1975
Durata 129 min Versione Uncut
Rapporto 2,35:1
Genere azione, thriller
Regia Clint Eastwood
Soggetto Trevanian (Rod Whitaker)
Sceneggiatura Hal Dresner, Warren Murphy, Rod Whitaker



Clint Eastwood: Jonathan Hemlock
George Kennedy: Ben Bowman
Vonetta McGee: Jemima Brown
Jack Cassidy: Miles Mellough
Heidi Brühl: Anna Montaigne
Thayer David: "Drago"
Reiner Schöne: Karl Freytag
Michael Grimm: Anderl Meyer
Jean-Pierre Bernard: Jean-Paul Montaigne
Brenda Venus: George
Gregory Walcott: Pope
Frank Redmond: Henri Baq (Wormwood)
Candice Rialson: studentessa
Elaine Shore: Miss Cerbero
Dan Howard: Dewayne
Jack Kosslyn: reporter



Jonathan Hemlock è un ex alpinista, un tempo killer su commissione per il servizio segreto C2. Il suo ex collega Pope lo viene a visitare per informarlo che "Drago", il loro ex capo, lo vuole ingaggiare nuovamente per un'operazione. La missione consiste nell'eliminare due agenti nemici. Il riluttante Hemlock viene convinto a parteciparvi con la minaccia di rivelare al fisco l'esistenza della sua collezione d'arte, messa insieme con mezzi illegali.



Dr. Jonathan Hemlock (Clint Eastwood) is an art history professor and collector who finances his hobby by performing the odd sanction (assassination) for an obscure government bureau. He is forced to take a case where he must find out which of the members of a mountain climbing team is the Russian killer he has been given as a target by joining an expedition to climb the treacherous Eiger.


















General

Complete name : Assassinio sull'Eiger - The Eiger Sanction - (1975).1o80p.h264.ita.eng.sub.ita.eng-MIRCrew\Assassinio sull'Eiger - The Eiger Sanction - (1975).1080p.h264.ita.eng.sub.ita.eng-MIRCrew.mkv
Format : Matroska
Format version : Version 4 / Version 2
File size : 2.80 GiB
Duration : 2h 8mn
Overall bit rate : 3 112 Kbps
Movie name : MIRCrew
Encoded date : UTC 2020-05-17 17:39:03
Writing application : mkvmerge v26.0.0 ('In The Game') 64-bit
Writing library : Lavf54.63.100
COMMENT : MIRCrew

Video
ID : 1
Format : AVC
Format/Info : Advanced Video Codec
Format profile : [email protected]
Format settings, CABAC : Yes
Format settings, ReFrames : 2 frames
Codec ID : V_MPEG4/ISO/AVC
Duration : 2h 8mn
Bit rate : 2 600 Kbps
Width : 1 920 pixels
Height : 816 pixels
Display aspect ratio : 2.35:1
Frame rate mode : Variable
Frame rate : 23.976 fps
Color space : YUV
Chroma subsampling : 4:2:0
Bit depth : 8 bits
Scan type : Progressive
Bits/(Pixel*Frame) : 0.069
Stream size : 2.29 GiB (82%)
Title : MIRCrew
Writing library : x264 core 130 r2273
Encoding settings : cabac=1 / ref=2 / deblock=1:0:0 / analyse=0x1:0x131 / me=hex / subme=7 / psy=1 / psy_rd=1.00:0.00 / mixed_ref=0 / me_range=16 / chroma_me=1 / trellis=1 / 8x8dct=0 / cqm=0 / deadzone=21,11 / fast_pskip=1 / chroma_qp_offset=-2 / threads=6 / lookahead_threads=1 / sliced_threads=0 / nr=0 / decimate=1 / interlaced=0 / bluray_compat=0 / constrained_intra=0 / bframes=3 / b_pyramid=0 / b_adapt=1 / b_bias=0 / direct=3 / weightb=1 / open_gop=0 / weightp=2 / keyint=230 / keyint_min=23 / scenecut=40 / intra_refresh=0 / rc_lookahead=40 / rc=abr / mbtree=1 / bitrate=2600 / ratetol=1.0 / qcomp=0.60 / qpmin=10 / qpmax=69 / qpstep=4 / vbv_maxrate=24000 / vbv_bufsize=24000 / nal_hrd=none / ip_ratio=1.40 / aq=1:1.00
Language : Italian
Default : Yes
Forced : No
DURATION : 02:08:53.685000000
NUMBER_OF_FRAMES : 185423
NUMBER_OF_BYTES : 2511626471
_STATISTICS_WRITING_APP : mkvmerge v26.0.0 ('In The Game') 64-bit
_STATISTICS_WRITING_DATE_UTC : 2020-05-17 18:46:35
_STATISTICS_TAGS : BPS DURATION NUMBER_OF_FRAMES NUMBER_OF_BYTES

Audio #1
ID : 2
Format : AC-3
Format/Info : Audio Coding 3
Mode extension : CM (complete main)
Codec ID : A_AC3
Duration : 2h 8mn
Bit rate mode : Constant
Bit rate : 256 Kbps
Channel(s) : 2 channels
Channel positions : Front: L R
Sampling rate : 48.0 KHz
Bit depth : 16 bits
Compression mode : Lossy
Delay relative to video : -5ms
Stream size : 236 MiB (8%)
Title : Ita Ac3
Language : Italian
Default : Yes
Forced : No
DURATION : 02:08:53.696000000
NUMBER_OF_FRAMES : 241678
NUMBER_OF_BYTES : 247478272
_STATISTICS_WRITING_APP : mkvmerge v26.0.0 ('In The Game') 64-bit
_STATISTICS_WRITING_DATE_UTC : 2020-05-17 18:46:35
_STATISTICS_TAGS : BPS DURATION NUMBER_OF_FRAMES NUMBER_OF_BYTES

Audio #2
ID : 3
Format : AC-3
Format/Info : Audio Coding 3
Mode extension : CM (complete main)
Codec ID : A_AC3
Duration : 2h 8mn
Bit rate mode : Constant
Bit rate : 256 Kbps
Channel(s) : 2 channels
Channel positions : Front: L R
Sampling rate : 48.0 KHz
Bit depth : 16 bits
Compression mode : Lossy
Delay relative to video : -5ms
Stream size : 236 MiB (8%)
Title : Eng Ac3
Language : English
Default : No
Forced : No
DURATION : 02:08:53.696000000
NUMBER_OF_FRAMES : 241678
NUMBER_OF_BYTES : 247478272
_STATISTICS_WRITING_APP : mkvmerge v26.0.0 ('In The Game') 64-bit
_STATISTICS_WRITING_DATE_UTC : 2020-05-17 18:46:35
_STATISTICS_TAGS : BPS DURATION NUMBER_OF_FRAMES NUMBER_OF_BYTES

Menu
00:00:00.000 : :00:00:00.000
00:09:03.251 : :00:09:03.251
00:13:14.961 : :00:13:14.961
00:17:59.787 : :00:17:59.787
00:22:35.521 : :00:22:35.521
00:30:11.101 : :00:30:11.101
00:40:31.721 : :00:40:31.721
00:58:51.403 : :00:58:51.403
01:06:15.054 : :01:06:15.054
01:19:00.402 : :01:19:00.402
01:31:45.917 : :01:31:45.917
01:42:52.958 : :01:42:52.958
01:47:10.924 : :01:47:10.924
01:54:17.559 : :01:54:17.559
01:59:59.943 : :01:59:59.943
02:06:39.801 : :02:06:39.801



Files:

Assassinio sull'Eiger - The Eiger sanction - (1975).1o80p.h264.ita.eng.sub.ita.eng-MIRCrew
  • Assassinio sull'Eiger - The Eiger sanction - (1975).1080p.h264.ita.eng.sub.ita.eng-MIRCrew.eng.idx (65.2 KB)
  • Assassinio sull'Eiger - The Eiger sanction - (1975).1080p.h264.ita.eng.sub.ita.eng-MIRCrew.eng.sub (6.2 MB)
  • Assassinio sull'Eiger - The Eiger sanction - (1975).1080p.h264.ita.eng.sub.ita.eng-MIRCrew.idx (6.3 KB)
  • Assassinio sull'Eiger - The Eiger sanction - (1975).1080p.h264.ita.eng.sub.ita.eng-MIRCrew.ita.idx (60.4 KB)
  • Assassinio sull'Eiger - The Eiger sanction - (1975).1080p.h264.ita.eng.sub.ita.eng-MIRCrew.ita.sub (5.5 MB)
  • Assassinio sull'Eiger - The Eiger sanction - (1975).1080p.h264.ita.eng.sub.ita.eng-MIRCrew.mkv (2.8 GB)
  • Assassinio sull'Eiger - The Eiger sanction - (1975).1080p.h264.ita.eng.sub.ita.eng-MIRCrew.sub (550.0 KB)

Code:

  • udp://tracker.torrent.eu.org:451/announce
  • udp://tracker.leechers-paradise.org:6969/announce
  • udp://tracker.cyberia.is:6969/announce
  • udp://tracker.iamhansen.xyz:2000/announce
  • udp://p4p.arenabg.com:1337/announce
  • udp://explodie.org:6969/announce
  • udp://tracker.opentrackr.org:1337/announce
  • udp://tracker.tiny-vps.com:6969/announce
  • udp://exodus.desync.com:6969/announce
  • udp://retracker.akado-ural.ru:80/announce
  • udp://tracker.moeking.me:6969/announce
  • udp://ipv4.tracker.harry.lu:80/announce
  • udp://open.stealth.si:80/announce
  • udp://9.rarbg.to:2710/announce
  • udp://opentor.org:2710/announce