Duncanville (2020) S01 (1080p AMZN Webrip x265 10bit EAC3 5.1 - Goki)[TAoE]

  • CategoryTV
  • TypeHEVC/x265
  • LanguageEnglish
  • Total size3.4 GB
  • Uploaded ByGoki
  • Downloads106
  • Last checkedMay. 21st '20
  • Date uploadedMay. 20th '20
  • Seeders 12
  • Leechers2

Infohash : 23DED4BCF5B7F0580DC509582CE091721DE03E7B






Duncanville (2020) IMDB










Media Information



General
Unique ID : 157906608524502915408919113998120711032 (0x76CBB4E2419D768F386AC30DD952F378)
Complete name : Duncanville (2020) S01E11 Classless President (1080p AMZN Webrip x265 10bit EAC3 5.1 - Goki)[TAoE].mkv
Format : Matroska
Format version : Version 4
File size : 338 MiB
Duration : 21 min 41 s
Overall bit rate : 2 175 kb/s
Movie name : Duncanville (2020) S01E11 Classless President (1080p AMZN Webrip x265 10bit EAC3 5.1 - Goki)[TAoE].mkv
Writing application : Lavf58.29.100
Writing library : Lavf58.29.100
ErrorDetectionType : Per level 1

Video
ID : 1
Format : HEVC
Format/Info : High Efficiency Video Coding
Format profile : Main [email protected]@Main
Codec ID : V_MPEGH/ISO/HEVC
Duration : 21 min 40 s
Bit rate : 1 534 kb/s
Width : 1 920 pixels
Height : 1 080 pixels
Display aspect ratio : 16:9
Frame rate mode : Constant
Frame rate : 23.976 (24000/1001) FPS
Color space : YUV
Chroma subsampling : 4:2:0
Bit depth : 10 bits
Bits/(Pixel*Frame) : 0.031
Stream size : 238 MiB (70%)
Title : Encoded by Goki for TAoE using Hiru V1.2
Writing library : x265 3.2+35-acc5d16999e2:[Windows][GCC 9.2.1][64 bit] 10bit
Encoding settings : cpuid=1111039 / frame-threads=4 / numa-pools=24 / wpp / no-pmode / no-pme / no-psnr / no-ssim / log-level=2 / input-csp=1 / input-res=1920x1080 / interlace=0 / total-frames=0 / level-idc=0 / high-tier=1 / uhd-bd=0 / ref=4 / no-allow-non-conformance / no-repeat-headers / annexb / no-aud / no-hrd / info / hash=0 / no-temporal-layers / open-gop / min-keyint=23 / keyint=250 / gop-lookahead=0 / bframes=8 / b-adapt=2 / b-pyramid / bframe-bias=0 / rc-lookahead=80 / lookahead-slices=4 / scenecut=40 / hist-scenecut=0 / radl=0 / no-splice / no-intra-refresh / ctu=64 / min-cu-size=8 / no-rect / no-amp / max-tu-size=32 / tu-inter-depth=1 / tu-intra-depth=1 / limit-tu=0 / rdoq-level=2 / dynamic-rd=0.00 / no-ssim-rd / signhide / no-tskip / nr-intra=0 / nr-inter=0 / no-constrained-intra / no-strong-intra-smoothing / max-merge=3 / limit-refs=3 / limit-modes / me=3 / subme=5 / merange=57 / temporal-mvp / no-frame-dup / no-hme / weightp / no-weightb / no-analyze-src-pics / deblock=0:0 / sao / no-sao-non-deblock / rd=4 / selective-sao=4 / no-early-skip / rskip / no-fast-intra / no-tskip-fast / no-cu-lossless / no-b-intra / no-splitrd-skip / rdpenalty=0 / psy-rd=1.30 / psy-rdoq=2.00 / no-rd-refine / no-lossless / cbqpoffs=0 / crqpoffs=0 / rc=crf / crf=22.0 / qcomp=0.60 / qpstep=4 / stats-write=0 / stats-read=0 / ipratio=1.40 / pbratio=1.30 / aq-mode=4 / aq-strength=1.10 / cutree / zone-count=0 / no-strict-cbr / qg-size=32 / no-rc-grain / qpmax=69 / qpmin=0 / no-const-vbv / sar=1 / overscan=0 / videoformat=5 / range=0 / colorprim=2 / transfer=2 / colormatrix=2 / chromaloc=0 / display-window=0 / cll=0,0 / min-luma=0 / max-luma=1023 / log2-max-poc-lsb=8 / vui-timing-info / vui-hrd-info / slices=1 / no-opt-qp-pps / no-opt-ref-list-length-pps / no-multi-pass-opt-rps / scenecut-bias=0.05 / hist-threshold=0.01 / no-opt-cu-delta-qp / no-aq-motion / no-hdr10 / no-hdr10-opt / no-dhdr10-opt / no-idr-recovery-sei / analysis-reuse-level=0 / analysis-save-reuse-level=0 / analysis-load-reuse-level=0 / scale-factor=0 / refine-intra=0 / refine-inter=0 / refine-mv=1 / refine-ctu-distortion=0 / no-limit-sao / ctu-info=0 / no-lowpass-dct / refine-analysis-type=0 / copy-pic=1 / max-ausize-factor=1.0 / no-dynamic-refine / no-single-sei / no-hevc-aq / no-svt / no-field / qp-adaptation-range=1.00 / no-scenecut-aware-qpconformance-window-offsets / right=0 / bottom=0
Language : English
Default : Yes
Forced : No
Color range : Limited

Audio
ID : 2
Format : E-AC-3
Format/Info : Enhanced AC-3
Commercial name : Dolby Digital Plus
Codec ID : A_EAC3
Duration : 21 min 40 s
Bit rate mode : Constant
Bit rate : 640 kb/s
Channel(s) : 6 channels
Channel layout : L R C LFE Ls Rs
Sampling rate : 48.0 kHz
Frame rate : 31.250 FPS (1536 SPF)
Bit depth : 32 bits
Compression mode : Lossy
Delay relative to video : 16 ms
Stream size : 99.2 MiB (29%)
Language : English
Service kind : Complete Main
Default : Yes
Forced : No

Text
ID : 3
Format : UTF-8
Codec ID : S_TEXT/UTF8
Codec ID/Info : UTF-8 Plain Text
Duration : 21 min 39 s
Bit rate : 122 b/s
Count of elements : 591
Stream size : 19.4 KiB (0%)
Title : SDH
Language : English
Default : No
Forced : No

Source


1080p AMZN WEB-DL NTb

Hello everyone,
We are TAoE, a small team of passionate encoders who love encoding. We try our best to provide you with high quality releases.
If you would like to join the team just drop us a comment or send us a message.




.........................................................................................................................................


Files:

Duncanville (2020) S01 (1080p AMZN Webrip x265 10bit EAC3 5.1 - Goki)[TAoE]
  • banner.jpg (277.8 KB)
  • Duncanville (2020) S01E01 Pilot (1080p AMZN Webrip x265 10bit EAC3 5.1 - Goki)[TAoE].mkv (325.7 MB)
  • Duncanville (2020) S01E01 Pilot (1080p AMZN Webrip x265 10bit EAC3 5.1 - Goki)[TAoE].nfo (4.9 KB)
  • Duncanville (2020) S01E02 Red Head Redemption (1080p AMZN Webrip x265 10bit EAC3 5.1 - Goki)[TAoE].mkv (325.1 MB)
  • Duncanville (2020) S01E02 Red Head Redemption (1080p AMZN Webrip x265 10bit EAC3 5.1 - Goki)[TAoE].nfo (4.2 KB)
  • Duncanville (2020) S01E03 Undacuva Mutha (1080p AMZN Webrip x265 10bit EAC3 5.1 - Goki)[TAoE].mkv (302.3 MB)
  • Duncanville (2020) S01E03 Undacuva Mutha (1080p AMZN Webrip x265 10bit EAC3 5.1 - Goki)[TAoE].nfo (4.3 KB)
  • Duncanville (2020) S01E04 Witch Day (1080p AMZN Webrip x265 10bit EAC3 5.1 - Goki)[TAoE].mkv (320.9 MB)
  • Duncanville (2020) S01E04 Witch Day (1080p AMZN Webrip x265 10bit EAC3 5.1 - Goki)[TAoE].nfo (1.7 KB)
  • Duncanville (2020) S01E05 Fridgy (1080p AMZN Webrip x265 10bit EAC3 5.1 - Goki)[TAoE].mkv (331.4 MB)
  • Duncanville (2020) S01E05 Fridgy (1080p AMZN Webrip x265 10bit EAC3 5.1 - Goki)[TAoE].nfo (1.4 KB)
  • Duncanville (2020) S01E06 Sister Wife (1080p AMZN Webrip x265 10bit EAC3 5.1 - Goki)[TAoE].mkv (308.8 MB)
  • Duncanville (2020) S01E06 Sister Wife (1080p AMZN Webrip x265 10bit EAC3 5.1 - Goki)[TAoE].nfo (1.5 KB)
  • Duncanville (2020) S01E07 Jack's Pipe Dream (1080p AMZN Webrip x265 10bit EAC3 5.1 - Goki)[TAoE].mkv (304.2 MB)
  • Duncanville (2020) S01E07 Jack's Pipe Dream (1080p AMZN Webrip x265 10bit EAC3 5.1 - Goki)[TAoE].nfo (1.8 KB)
  • Duncanville (2020) S01E08 Judge Annie (1080p AMZN Webrip x265 10bit EAC3 5.1 - Goki)[TAoE].mkv (317.5 MB)
  • Duncanville (2020) S01E08 Judge Annie (1080p AMZN Webrip x265 10bit EAC3 5.1 - Goki)[TAoE].nfo (1.8 KB)
  • Duncanville (2020) S01E09 Free Range Children (1080p AMZN Webrip x265 10bit EAC3 5.1 - Goki)[TAoE].mkv (306.5 MB)
  • Duncanville (2020) S01E09 Free Range Children (1080p AMZN Webrip x265 10bit EAC3 5.1 - Goki)[TAoE].nfo (1.9 KB)
  • Duncanville (2020) S01E10 Wolf Mother (1080p AMZN Webrip x265 10bit EAC3 5.1 - Goki)[TAoE].mkv (327.0 MB)
  • Duncanville (2020) S01E10 Wolf Mother (1080p AMZN Webrip x265 10bit EAC3 5.1 - Goki)[TAoE].nfo (1.8 KB)
  • Duncanville (2020) S01E11 Classless President (1080p AMZN Webrip x265 10bit EAC3 5.1 - Goki)[TAoE].mkv (337.5 MB)
  • Duncanville (2020) S01E11 Classless President (1080p AMZN Webrip x265 10bit EAC3 5.1 - Goki)[TAoE].nfo (1.6 KB)
  • fanart.jpg (141.0 KB)
  • poster.jpg (96.7 KB)
  • tvshow.nfo (2.5 KB)

Code:

  • udp://tracker.coppersurfer.tk:6969/announce
  • udp://tracker.internetwarriors.net:1337/announce
  • http://tracker.opentrackr.org:1337/announce
  • udp://denis.stalker.upeer.me:6969/announce
  • udp://tracker.internetwarriors.net:1337
  • udp://9.rarbg.me:2720/announce
  • udp://explodie.org:6969/announce
  • udp://tracker.cyberia.is:6969/announce
  • udp://thetracker.org/announce
  • udp://open.demonii.si:1337/announce