Rough Night (2017) 720p BRRip Dual Aud [ HIN + ENG ] Eng Sub

  • CategoryMovies
  • TypeDubs/Dual Audio
  • LanguageEnglish
  • Total size986.6 MB
  • Uploaded Bykrishh1337
  • Downloads597
  • Last checkedMay. 20th '20
  • Date uploadedMay. 19th '20
  • Seeders 81
  • Leechers48

Rough Night

Drama Comedy

Five best friends from college reunite 10 years later for a wild bachelorette weekend in Miami. Their hard partying takes a hilariously dark turn when they accidentally kill a male stripper. Amidst the craziness of trying to cover it up, they're ultimately brought closer together when it matters most.

Infohash : 9B0F2111788EF45CC42FC3FC44CCF5E4FAC479B0



Rough Night (2017)
R | 1h 41min | Comedy, Crime, Thriller | 16 June 2017 (USA)

Things go terribly wrong for a group of girlfriends who hire a male stripper for a bachelorette party in Miami.
Director: Lucia Aniello
Writers: Lucia Aniello, Paul W. Downs
Stars: Scarlett Johansson, Kate McKinnon, Zo√ę Kravitz

Format version : Version 4
File size : 987 MiB
Duration : 1 h 40 min
Overall bit rate : 1 368 kb/s

Video
ID : 1
Format : AVC
Format/Info : Advanced Video Codec
Format profile : [email protected]
Format settings : CABAC / 6 Ref Frames
Format settings, CABAC : Yes
Format settings, Reference : 6 frames
Codec ID : V_MPEG4/ISO/AVC
Duration : 1 h 40 min
Bit rate : 1 114 kb/s
Width : 1 280 pixels
Height : 534 pixels
Display aspect ratio : 2.40:1
Frame rate mode : Constant
Frame rate : 23.976 (24000/1001) FPS
Color space : YUV
Chroma subsampling : 4:2:0
Bit depth : 8 bits
Scan type : Progressive
Bits/(Pixel*Frame) : 0.068
Stream size : 803 MiB (81%)
Writing library : x264 core

Audio #1
ID : 2
Format : AAC LC
Format/Info : Advanced Audio Codec Low Complexity
Codec ID : A_AAC-2
Duration : 1 h 40 min
Bit rate : 126 kb/s
Channel(s) : 2 channels
Channel layout : L R
Sampling rate : 44.1 kHz
Frame rate : 43.066 FPS (1024 SPF)
Compression mode : Lossy
Stream size : 90.5 MiB (9%)
Language : Hindi
Default : Yes
Forced : Yes

Audio #2
ID : 3
Format : AAC LC
Format/Info : Advanced Audio Codec Low Complexity
Codec ID : A_AAC-2
Duration : 1 h 40 min
Bit rate : 125 kb/s
Channel(s) : 2 channels
Channel layout : L R
Sampling rate : 44.1 kHz
Frame rate : 43.066 FPS (1024 SPF)
Compression mode : Lossy
Stream size : 90.3 MiB (9%)
Language : English
Default : No
Forced : No

Text
ID : 4
Format : ASS
Codec ID : S_TEXT/ASS
Codec ID/Info : Advanced Sub Station Alpha
Duration : 1 h 39 min
Bit rate : 168 b/s
Count of elements : 2211
Compression mode : Lossless
Stream size : 122 KiB (0%)
Language : English
Default : No
Forced : No

Files:

  • Rough Night (2017) 720p BRRip Dual Aud [ HIN + ENG ] Eng Sub.mkv (986.6 MB)

Code:

  • udp://exodus.desync.com:6969/announce
  • http://tracker3.itzmx.com:8080/announce
  • udp://explodie.org:6969/announce
  • udp://9.rarbg.to:2800/announce
  • http://tracker3.itzmx.com:6961/announce
  • http://tracker1.itzmx.com:8080/announce
  • udp://tracker.tiny-vps.com:6969/announce
  • http://t.nyaatracker.com:80/announce
  • udp://tracker.moeking.me:6969/announce
  • udp://tracker.torrent.eu.org:451/announce
  • udp://tracker.opentrackr.org:1337/announce
  • udp://ipv4.tracker.harry.lu:80/announce
  • http://explodie.org:6969/announce
  • http://tracker.opentrackr.org:1337/announce
  • udp://tracker.leechers-paradise.org:6969/announce
  • udp://tracker.open-internet.nl:6969/announce
  • udp://tracker.coppersurfer.tk:6969/announce
  • udp://tracker.pirateparty.gr:6969/announce
  • udp://open.stealth.si:80/announce