Sia - Some People Have REAL Problems (2009) Flac

  • CategoryMusic
  • TypeLossless
  • LanguageEnglish
  • Total size406.3 MB
  • Uploaded Bywas95was
  • Downloads125
  • Last checkedMay. 20th '20
  • Date uploadedMay. 19th '20
  • Seeders 41
  • Leechers8

Infohash : A53A6844477775E2C67E1E317139EB77DD84E775



Quality-Lossless
Release-2009
Duration-01:01:01
File Size-426 MB
Genre-Pop
Cover Size-800px

----------------------------------------------------------------------------------------------
Analyzed: Some People Have REAL Problems / Artist: Sia
----------------------------------------------------------------------------------------------
DR Peak RMS Duration Title [codec]
----------------------------------------------------------------------------------------------
DR6 -0.04 dB -8.92 dB 4:13 01 - Little Black Sandals (Album Version) [flac]
DR7 -0.05 dB -10.77 dB 4:25 02 - Lentil (Album Version) [flac]
DR6 -0.06 dB -8.82 dB 4:23 03 - Day Too Soon (Album Version) [flac]
DR6 -0.05 dB -10.39 dB 4:23 04 - You Have Been Loved (Album Version) [flac]
DR7 -0.03 dB -8.23 dB 2:39 05 - The Girl You Lost To Cocaine (Album Version) [flac]
DR6 -0.05 dB -8.82 dB 3:16 06 - Academia (Album Version) [flac]
DR7 -0.05 dB -9.76 dB 3:46 07 - I Go To Sleep (Album Version) [flac]
DR6 -0.04 dB -8.97 dB 3:28 08 - Playground (Album Version) [flac]
DR6 -0.05 dB -10.20 dB 5:01 09 - Death By Chocolate (Album Version) [flac]
DR6 -0.04 dB -8.65 dB 4:20 10 - Soon We'll Be Found (Album Version) [flac]
DR6 -0.43 dB -7.61 dB 4:25 11 - Electric Bird (Album Version) [flac]
DR6 -0.03 dB -10.40 dB 5:01 12 - Beautiful Calm Driving (Album Version) [flac]
DR7 -0.05 dB -12.09 dB 4:30 13 - Lullaby (Album Version) [flac]
DR6 -0.03 dB -8.08 dB 3:14 14 - Buttons (Album Version) [flac]
DR7 -0.01 dB -9.38 dB 3:50 15 - Cares At The Door (Album Version) [flac]
----------------------------------------------------------------------------------------------
Number of files: 15
Official DR value: DR6

Sampling rate: 44100 Hz
Average bitrate: 930kbs
Bits per sample: 16 bit

Files:

Sia - Some People Have REAL Problems (2009) Flac
  • 01 - Little Black Sandals (Album Version).flac (29.3 MB)
  • 02 - Lentil (Album Version).flac (30.2 MB)
  • 03 - Day Too Soon (Album Version).flac (29.8 MB)
  • 04 - You Have Been Loved (Album Version).flac (27.9 MB)
  • 05 - The Girl You Lost To Cocaine (Album Version).flac (19.4 MB)
  • 06 - Academia (Album Version).flac (22.3 MB)
  • 07 - I Go To Sleep (Album Version).flac (25.0 MB)
  • 08 - Playground (Album Version).flac (23.1 MB)
  • 09 - Death By Chocolate (Album Version).flac (31.7 MB)
  • 10 - Soon We'll Be Found (Album Version).flac (29.5 MB)
  • 11a - Electric Bird (Album Version).flac (31.3 MB)
  • 12 - Beautiful Calm Driving (Album Version).flac (32.9 MB)
  • 13 - Lullaby (Album Version).flac (24.9 MB)
  • 14 - Buttons (Album Version).flac (23.4 MB)
  • 15 - Cares At The Door (Album Version).flac (24.6 MB)
  • cover.png (1.2 MB)
  • dr14.txt (1.8 KB)

Code:

  • udp://tracker.piratepublic.com:1337/announce
  • udp://tracker.pirateparty.gr:6969/announce
  • udp://tracker.coppersurfer.tk:6969/announce
  • udp://tracker.leechers-paradise.org:6969/announce
  • udp://9.rarbg.com:2710/announce
  • http://p4p.arenabg.com:1337/announce
  • http://explodie.org:6969/announce
  • udp://tracker.opentrackr.org:1337/announce
  • udp://exodus.desync.com:6969/announce
  • udp://tracker.leechers-paradise.org:6969/announce
  • udp://tracker.zer0day.to:1337/announce
  • udp://open.demonii.si:1337/announce
  • udp://exodus.desync.com:6969/announce
  • udp://tracker.iamhansen.xyz:2000/announce