Victoria Reed - Aquamadre (2020) [24bit Hi-Res]

  • CategoryMusic
  • TypeLossless
  • LanguageEnglish
  • Total size375 MB
  • Uploaded Bywas95was
  • Downloads60
  • Last checkedMay. 20th '20
  • Date uploadedMay. 19th '20
  • Seeders 20
  • Leechers13

Infohash : C2CF303E656FD965F0FDCAEA9E9C908648A93F2C



Quality-Lossless
Release-2020
Duration-00:34:53
File Size-393 MB
Genre-Pop
Cover Size-1400px

----------------------------------------------------------------------------------------------
Analyzed: Aquamadre / Artist: Victoria Reed
----------------------------------------------------------------------------------------------
DR Peak RMS Duration Title [codec]
----------------------------------------------------------------------------------------------
DR6 -0.10 dB -9.66 dB 2:54 01 - Same Way [flac]
DR7 -0.10 dB -9.13 dB 2:33 02 - Does It Show [flac]
DR7 -0.10 dB -10.03 dB 4:04 03 - I Will [flac]
DR6 -0.10 dB -9.35 dB 3:00 04 - If You Can Love [flac]
DR7 -0.10 dB -11.84 dB 5:03 05 - Do It for You Too [flac]
DR6 -0.10 dB -10.41 dB 2:48 06 - Heal Your Pain [flac]
DR5 -0.10 dB -9.52 dB 3:37 07 - Anything to Say [flac]
DR8 -0.10 dB -10.15 dB 3:14 08 - Fall Away [flac]
DR11 -0.50 dB -14.28 dB 2:16 09 - Not His to Hold [flac]
DR7 -0.00 dB -9.88 dB 5:17 10 - Life 2 Be Adored [flac]
----------------------------------------------------------------------------------------------
Number of files: 10
Official DR value: DR7

Sampling rate: 44100 Hz
Average bitrate: 1494kbs
Bits per sample: 24 bit

Files:

Victoria Reed - Aquamadre (2020) [24bit Hi-Res]
  • 01 - Same Way.flac (31.2 MB)
  • 02 - Does It Show.flac (29.1 MB)
  • 03 - I Will.flac (44.3 MB)
  • 04 - If You Can Love.flac (33.3 MB)
  • 05 - Do It for You Too.flac (50.4 MB)
  • 06 - Heal Your Pain.flac (30.1 MB)
  • 07 - Anything to Say.flac (38.5 MB)
  • 08 - Fall Away.flac (35.0 MB)
  • 09 - Not His to Hold.flac (23.4 MB)
  • 10 - Life 2 Be Adored.flac (57.4 MB)
  • art.jpg (1.5 MB)
  • cover.jpg (673.5 KB)
  • dr14.txt (1.3 KB)

Code:

  • udp://tracker.piratepublic.com:1337/announce
  • udp://tracker.pirateparty.gr:6969/announce
  • udp://tracker.coppersurfer.tk:6969/announce
  • udp://tracker.leechers-paradise.org:6969/announce
  • udp://9.rarbg.com:2710/announce
  • http://p4p.arenabg.com:1337/announce
  • http://explodie.org:6969/announce
  • udp://tracker.opentrackr.org:1337/announce
  • udp://exodus.desync.com:6969/announce
  • udp://tracker.leechers-paradise.org:6969/announce
  • udp://tracker.zer0day.to:1337/announce
  • udp://open.demonii.si:1337/announce
  • udp://exodus.desync.com:6969/announce
  • udp://tracker.iamhansen.xyz:2000/announce