The NeverEnding Story (1984) (1080p BDRip x265 10bit DTS-HD MA 5.1 - Balthallion)[TAoE]

  • CategoryMovies
  • TypeHEVC/x265
  • LanguageEnglish
  • Total size4.8 GB
  • Uploaded ByGoki
  • Downloads77
  • Last checkedMay. 20th '20
  • Date uploadedMay. 19th '20
  • Seeders 16
  • Leechers17

The NeverEnding Story

Fantasy

While hiding from bullies in his school's attic, a young boy discovers the extraordinary land of Fantasia, through a magical book called The Neverending Story. The book tells the tale of Atreyu, a young warrior who, with the help of a luck dragon named Falkor, must save Fantasia from the destruction of The Nothing.

Infohash : 544A5576DF657BEFBB656BE00796DF81B928BCE0






The NeverEnding Story (1984) IMDB









Media Information



General
Unique ID : 55837439424681330006952182844356541275 (0x2A01E650280C7AD148DA785EB6AFBB5B)
Complete name : The NeverEnding Story (1984) (1080p BDRip x265 10bit DTS-HD MA 5.1 - Balthallion)[TAoE].mkv
Format : Matroska
Format version : Version 4
File size : 4.77 GiB
Duration : 1 h 34 min
Overall bit rate mode : Variable
Overall bit rate : 7 261 kb/s
Movie name : The NeverEnding Story (1984) (1080p BDRip x265 10bit DTS-HD MA 5.1 - Balthallion)[TAoE].mkv
Encoded date : UTC 2020-05-16 21:32:06
Writing application : mkvmerge v28.2.0 ('The Awakening') 64-bit
Writing library : libebml v1.3.6 + libmatroska v1.4.9 / Lavf58.29.100

Video
ID : 1
Format : HEVC
Format/Info : High Efficiency Video Coding
Format profile : Main [email protected]@Main
Codec ID : V_MPEGH/ISO/HEVC
Duration : 1 h 34 min
Bit rate : 4 814 kb/s
Width : 1 920 pixels
Height : 1 080 pixels
Display aspect ratio : 16:9
Frame rate mode : Constant
Frame rate : 23.976 (24000/1001) FPS
Color space : YUV
Chroma subsampling : 4:2:0
Bit depth : 10 bits
Bits/(Pixel*Frame) : 0.097
Stream size : 3.16 GiB (66%)
Title : Encoded by Balthallion for TAoE
Writing library : x265 3.2+35-acc5d16999e2:[Windows][GCC 9.2.1][64 bit] 10bit
Encoding settings : cpuid=1111039 / frame-threads=4 / numa-pools=16 / wpp / no-pmode / no-pme / no-psnr / no-ssim / log-level=2 / input-csp=1 / input-res=1920x1080 / interlace=0 / total-frames=0 / level-idc=0 / high-tier=1 / uhd-bd=0 / ref=4 / no-allow-non-conformance / no-repeat-headers / annexb / no-aud / no-hrd / info / hash=0 / no-temporal-layers / open-gop / min-keyint=23 / keyint=250 / gop-lookahead=0 / bframes=8 / b-adapt=2 / b-pyramid / bframe-bias=0 / rc-lookahead=80 / lookahead-slices=4 / scenecut=40 / hist-scenecut=0 / radl=0 / no-splice / no-intra-refresh / ctu=64 / min-cu-size=8 / no-rect / no-amp / max-tu-size=32 / tu-inter-depth=1 / tu-intra-depth=1 / limit-tu=0 / rdoq-level=2 / dynamic-rd=0.00 / no-ssim-rd / signhide / no-tskip / nr-intra=0 / nr-inter=0 / no-constrained-intra / no-strong-intra-smoothing / max-merge=3 / limit-refs=3 / limit-modes / me=3 / subme=5 / merange=57 / temporal-mvp / no-frame-dup / no-hme / weightp / no-weightb / no-analyze-src-pics / deblock=0:0 / sao / no-sao-non-deblock / rd=4 / selective-sao=4 / no-early-skip / rskip / no-fast-intra / no-tskip-fast / no-cu-lossless / no-b-intra / no-splitrd-skip / rdpenalty=0 / psy-rd=1.30 / psy-rdoq=2.00 / no-rd-refine / no-lossless / cbqpoffs=0 / crqpoffs=0 / rc=crf / crf=21.0 / qcomp=0.60 / qpstep=4 / stats-write=0 / stats-read=0 / ipratio=1.40 / pbratio=1.30 / aq-mode=4 / aq-strength=1.10 / cutree / zone-count=0 / no-strict-cbr / qg-size=32 / no-rc-grain / qpmax=69 / qpmin=0 / no-const-vbv / sar=1 / overscan=0 / videoformat=5 / range=0 / colorprim=2 / transfer=2 / colormatrix=2 / chromaloc=0 / display-window=0 / cll=0,0 / min-luma=0 / max-luma=1023 / log2-max-poc-lsb=8 / vui-timing-info / vui-hrd-info / slices=1 / no-opt-qp-pps / no-opt-ref-list-length-pps / no-multi-pass-opt-rps / scenecut-bias=0.05 / hist-threshold=0.01 / no-opt-cu-delta-qp / no-aq-motion / no-hdr10 / no-hdr10-opt / no-dhdr10-opt / no-idr-recovery-sei / analysis-reuse-level=0 / analysis-save-reuse-level=0 / analysis-load-reuse-level=0 / scale-factor=0 / refine-intra=0 / refine-inter=0 / refine-mv=1 / refine-ctu-distortion=0 / no-limit-sao / ctu-info=0 / no-lowpass-dct / refine-analysis-type=0 / copy-pic=1 / max-ausize-factor=1.0 / no-dynamic-refine / no-single-sei / no-hevc-aq / no-svt / no-field / qp-adaptation-range=1.00 / no-scenecut-aware-qpconformance-window-offsets / right=0 / bottom=0
Language : English
Default : Yes
Forced : No
Color range : Limited

Audio #1
ID : 2
Format : DTS XLL
Format/Info : Digital Theater Systems
Commercial name : DTS-HD Master Audio
Codec ID : A_DTS
Duration : 1 h 34 min
Bit rate mode : Variable
Bit rate : 2 222 kb/s
Channel(s) : 6 channels
Channel layout : C L R Ls Rs LFE
Sampling rate : 48.0 kHz
Frame rate : 93.750 FPS (512 SPF)
Bit depth : 16 bits
Compression mode : Lossless
Delay relative to video : -42 ms
Stream size : 1.46 GiB (31%)
Language : English
Default : Yes
Forced : No

Audio #2
ID : 3
Format : AC-3
Format/Info : Audio Coding 3
Commercial name : Dolby Digital
Codec ID : A_AC3
Duration : 1 h 34 min
Bit rate mode : Constant
Bit rate : 192 kb/s
Channel(s) : 2 channels
Channel layout : L R
Sampling rate : 48.0 kHz
Frame rate : 31.250 FPS (1536 SPF)
Compression mode : Lossy
Delay relative to video : -42 ms
Stream size : 129 MiB (3%)
Title : Commentary by director Wolfgang Petersen / Dolby Digital Audio / 2.0 / 48 kHz / 192 kbps / 16-bit
Language : English
Service kind : Complete Main
Default : No
Forced : No

Text #1
ID : 4
Format : PGS
Muxing mode : zlib
Codec ID : S_HDMV/PGS
Codec ID/Info : Picture based subtitle format used on BDs/HD-DVDs
Duration : 1 h 31 min
Bit rate : 16.7 kb/s
Count of elements : 1404
Stream size : 11.0 MiB (0%)
Title : SDH
Language : English
Default : No
Forced : No

Text #2
ID : 5
Format : PGS
Muxing mode : zlib
Codec ID : S_HDMV/PGS
Codec ID/Info : Picture based subtitle format used on BDs/HD-DVDs
Duration : 1 h 33 min
Bit rate : 16.8 kb/s
Count of elements : 1292
Stream size : 11.2 MiB (0%)
Language : French
Default : No
Forced : No

Text #3
ID : 6
Format : PGS
Muxing mode : zlib
Codec ID : S_HDMV/PGS
Codec ID/Info : Picture based subtitle format used on BDs/HD-DVDs
Duration : 1 h 33 min
Bit rate : 16.6 kb/s
Count of elements : 1328
Stream size : 11.1 MiB (0%)
Language : Spanish
Default : No
Forced : No

Text #4
ID : 7
Format : PGS
Muxing mode : zlib
Codec ID : S_HDMV/PGS
Codec ID/Info : Picture based subtitle format used on BDs/HD-DVDs
Duration : 1 h 33 min
Bit rate : 16.2 kb/s
Count of elements : 1338
Stream size : 10.8 MiB (0%)
Language : Portuguese
Default : No
Forced : No

Menu
00:00:00.000 : :Credits
00:02:07.127 : :Nice Talk with Dad
00:05:24.032 : :The Bullies
00:06:42.860 : :Koreander's Book
00:10:37.887 : :Late for School
00:12:31.167 : :The Rock Biter
00:16:44.586 : :The Nothing Approaches
00:19:10.816 : :The Ivory Tower
00:21:03.929 : :Court of the Empress
00:23:01.296 : :Atreyu's Mission
00:26:56.323 : :Common Quests
00:30:28.535 : :Swamps of Sadness
00:34:14.385 : :Mountainous Moria
00:40:14.787 : :Close Call
00:47:02.110 : :Close Call
00:47:03.945 : :Urgl and Engywook
00:50:26.939 : :Great Stone Gateway
00:53:38.506 : :Through the Portal
00:58:01.852 : :Magic Mirror Gate
01:00:08.145 : :Southern Oracle
01:03:25.217 : :Aloft with Falkor
01:07:04.978 : :A Weary Rock Biter
01:10:27.681 : :Chamber of Frescoes
01:11:57.604 : :Gmork Strikes
01:16:01.848 : :Falkor to the Rescue
01:19:18.085 : :Back to the Tower
01:22:42.373 : :The Neverending Story
01:25:03.514 : :Do What You Dream
01:26:17.421 : :The Fantasia Inside
01:28:23.297 : :Riding High
01:31:09.463 : :End Credits




Source Information



General
Unique ID : 56192764088843417828373569017985359692 (0x2A46552BEF99463F15B02CF3DD2BDF4C)
Complete name : The.Neverending.Story.1984.30th.Anniversary.Edition.1080p.BluRay.REMUX.VC-1.DTS-HD.MA.5.1-EPSiLON.mkv
Format : Matroska
Format version : Version 4
File size : 16.8 GiB
Duration : 1 h 34 min
Overall bit rate mode : Variable
Overall bit rate : 25.5 Mb/s
Encoded date : UTC 2016-10-20 07:40:55
Writing application : mkvmerge v9.5.0 ('Quiet Fire') 64bit
Writing library : libebml v1.3.4 + libmatroska v1.4.5

Video
ID : 1
Format : VC-1
Format profile : [email protected]
Codec ID : V_MS/VFW/FOURCC / WVC1
Codec ID/Hint : Microsoft
Duration : 1 h 34 min
Bit rate : 23.1 Mb/s
Width : 1 920 pixels
Height : 1 080 pixels
Display aspect ratio : 16:9
Frame rate mode : Constant
Frame rate : 23.976 (24000/1001) FPS
Color space : YUV
Chroma subsampling : 4:2:0
Bit depth : 8 bits
Scan type : Progressive
Compression mode : Lossy
Bits/(Pixel*Frame) : 0.464
Stream size : 15.2 GiB (90%)
Title : VC-1 Video / 23068 kbps / 1080p / 23.976 fps / 16:9 / Advanced Profile 3
Language : English
Default : Yes
Forced : No

Audio #1
ID : 2
Format : DTS XLL
Format/Info : Digital Theater Systems
Commercial name : DTS-HD Master Audio
Codec ID : A_DTS
Duration : 1 h 34 min
Bit rate mode : Variable
Bit rate : 2 222 kb/s
Channel(s) : 6 channels
Channel layout : C L R Ls Rs LFE
Sampling rate : 48.0 kHz
Frame rate : 93.750 FPS (512 SPF)
Bit depth : 16 bits
Compression mode : Lossless
Stream size : 1.46 GiB (9%)
Title : DTS-HD Master Audio / 5.1 / 48 kHz / 2222 kbps / 16-bit
Language : English
Default : Yes
Forced : No

Audio #2
ID : 3
Format : AC-3
Format/Info : Audio Coding 3
Commercial name : Dolby Digital
Codec ID : A_AC3
Duration : 1 h 34 min
Bit rate mode : Constant
Bit rate : 192 kb/s
Channel(s) : 2 channels
Channel layout : L R
Sampling rate : 48.0 kHz
Frame rate : 31.250 FPS (1536 SPF)
Compression mode : Lossy
Stream size : 129 MiB (1%)
Title : Commentary by director Wolfgang Petersen / Dolby Digital Audio / 2.0 / 48 kHz / 192 kbps / 16-bit
Language : English
Service kind : Complete Main
Default : No
Forced : No

Text #1
ID : 4
Format : PGS
Codec ID : S_HDMV/PGS
Codec ID/Info : Picture based subtitle format used on BDs/HD-DVDs
Duration : 1 h 31 min
Bit rate : 16.7 kb/s
Count of elements : 1404
Stream size : 11.0 MiB (0%)
Title : SDH
Language : English
Default : No
Forced : No

Text #2
ID : 5
Format : PGS
Codec ID : S_HDMV/PGS
Codec ID/Info : Picture based subtitle format used on BDs/HD-DVDs
Duration : 1 h 33 min
Bit rate : 16.8 kb/s
Count of elements : 1292
Stream size : 11.2 MiB (0%)
Language : French
Default : No
Forced : No

Text #3
ID : 6
Format : PGS
Codec ID : S_HDMV/PGS
Codec ID/Info : Picture based subtitle format used on BDs/HD-DVDs
Duration : 1 h 33 min
Bit rate : 16.6 kb/s
Count of elements : 1328
Stream size : 11.1 MiB (0%)
Language : Spanish
Default : No
Forced : No

Text #4
ID : 7
Format : PGS
Codec ID : S_HDMV/PGS
Codec ID/Info : Picture based subtitle format used on BDs/HD-DVDs
Duration : 1 h 33 min
Bit rate : 16.2 kb/s
Count of elements : 1338
Stream size : 10.8 MiB (0%)
Language : Portuguese
Default : No
Forced : No

Menu
00:00:00.000 : en:Credits
00:02:07.127 : en:Nice Talk with Dad
00:05:24.032 : en:The Bullies
00:06:42.860 : en:Koreander's Book
00:10:37.887 : en:Late for School
00:12:31.167 : en:The Rock Biter
00:16:44.586 : en:The Nothing Approaches
00:19:10.816 : en:The Ivory Tower
00:21:03.929 : en:Court of the Empress
00:23:01.296 : en:Atreyu's Mission
00:26:56.323 : en:Common Quests
00:30:28.535 : en:Swamps of Sadness
00:34:14.385 : en:Mountainous Moria
00:40:14.787 : en:Close Call
00:47:03.904 : en:Urgl and Engywook
00:50:26.898 : en:Great Stone Gateway
00:53:38.465 : en:Through the Portal
00:58:01.811 : en:Magic Mirror Gate
01:00:08.104 : en:Southern Oracle
01:03:25.176 : en:Aloft with Falkor
01:07:04.937 : en:A Weary Rock Biter
01:10:27.640 : en:Chamber of Frescoes
01:11:57.563 : en:Gmork Strikes
01:16:01.807 : en:Falkor to the Rescue
01:19:18.044 : en:Back to the Tower
01:22:42.332 : en:The Neverending Story
01:25:03.473 : en:Do What You Dream
01:26:17.380 : en:The Fantasia Inside
01:28:23.256 : en:Riding High
01:31:09.422 : en:End Credits



Hello everyone,
We are TAoE, a small team of passionate encoders who love encoding. We try our best to provide you with high quality releases.
If you would like to join the team just drop us a comment or send us a message.




.........................................................................................................................................


Files:

The NeverEnding Story (1984) (1080p BDRip x265 10bit DTS-HD MA 5.1 - Balthallion)[TAoE]
  • The NeverEnding Story (1984) (1080p BDRip x265 10bit DTS-HD MA 5.1 - Balthallion)[TAoE].mkv (4.8 GB)

Code:

  • udp://tracker.coppersurfer.tk:6969/announce
  • udp://tracker.internetwarriors.net:1337/announce
  • http://tracker.opentrackr.org:1337/announce
  • udp://denis.stalker.upeer.me:6969/announce
  • udp://tracker.internetwarriors.net:1337
  • udp://9.rarbg.me:2720/announce
  • udp://explodie.org:6969/announce
  • udp://tracker.cyberia.is:6969/announce
  • udp://thetracker.org/announce
  • udp://open.demonii.si:1337/announce