Gulabo Sitabo 2020 x264 720p Esub AmaZoNe Hindi GOPI SAHI

  • CategoryMovies
  • TypeBollywood
  • LanguageHindi
  • Total size890.8 MB
  • Uploaded ByPENDUDESI
  • Downloads3132
  • Last checkedJun. 13th '20
  • Date uploadedJun. 12th '20
  • Seeders 71
  • Leechers90

Infohash : EE01F907F963703DF330BB568BD3E98C7FBA46CD

https://www.gopisahi.life/



Format : Matroska

Format version : Version 4 / Version 2

File size : 891 MiB

Duration : 2 h 4 min

Overall bit rate : 997 kb/s

Movie name : Gulabo Sitabo 2020 GOPI SAHI

Encoded date : UTC 2020-06-12 13:34:20

Video

ID : 1

Format : AVC

Format/Info : Advanced Video Codec

Format profile : [email protected]

Format settings, CABAC : Yes

Format settings, RefFrames : 5 frames

Codec ID : V_MPEG4/ISO/AVC

Duration : 2 h 4 min

Bit rate : 899 kb/s

Width : 1 280 pixels

Height : 534 pixels

Display aspect ratio : 2.40:1

Frame rate mode : Constant

Frame rate : 24.000 FPS

Color space : YUV

Chroma subsampling : 4:2:0

Bit depth : 8 bits

Scan type : Progressive

Bits/(Pixel*Frame) : 0.055

Stream size : 803 MiB (90%)

Title : GOPI SAHI

Writing library : x264 core 157 r2935 545de2f


Audio

ID : 2

Format : AAC

Format/Info : Advanced Audio Codec

Format profile : LC

Codec ID : A_AAC

Duration : 2 h 4 min

Bit rate : 96.0 kb/s

Channel(s) : 2 channels

Channel positions : Front: L R

Sampling rate : 48.0 kHz

Frame rate : 46.875 FPS (1024 SPF)

Compression mode : Lossy

Delay relative to video : -21 ms

Stream size : 85.9 MiB (10%)

Title : GOPI SAHI

Language : Hindi

Default : Yes

Forced : No


Text

ID : 3

Format : UTF-8

Codec ID : S_TEXT/UTF8

Codec ID/Info : UTF-8 Plain Text

Duration : 1 h 59 min

Bit rate : 76 b/s

Count of elements : 1866

Stream size : 67.1 KiB (0%)

Title : GOPI SAHI

Language : English

Default : Yes

Forced : No





Files:

Gulabo Sitabo 2020 x264 720p Esub AmaZoNe Hindi GOPI SAHI
  • Encooded And Uploded From.txt (0.0 KB)
  • GOPI SAHI.url (0.1 KB)
  • Gulabo Sitabo 2020 GOPI SAHI.mkv (890.8 MB)

Code:

  • udp://tracker.coppersurfer.tk:6969/announce
  • udp://tracker.opentrackr.org:1337/announce
  • udp://tracker.leechers-paradise.org:6969/announce
  • udp://p4p.arenabg.com:1337/announce
  • udp://exodus.desync.com:6969/announce
  • udp://open.stealth.si:80/announce
  • udp://tracker.sbsub.com:2710/announce
  • udp://tracker.cyberia.is:6969/announce
  • udp://tracker.tiny-vps.com:6969/announce
  • udp://retracker.lanta-net.ru:2710/announce
  • udp://tracker.torrent.eu.org:451/announce
  • udp://tracker.moeking.me:6969/announce
  • udp://tracker3.itzmx.com:6961/announce
  • http://tracker1.itzmx.com:8080/announce
  • http://tracker.nyap2p.com:8080/announce