World War Z (2013) Unrated (1080p BDRip x265 10bit DTS-HD MA 7.1 - r0b0t) [TAoE].mkv

  • CategoryMovies
  • TypeHEVC/x265
  • LanguageEnglish
  • Total size7.9 GB
  • Uploaded ByGoki
  • Downloads212
  • Last checkedJun. 15th '20
  • Date uploadedJun. 15th '20
  • Seeders 40
  • Leechers11

World War Z

Action Drama Horror Science Fiction Thriller

Life for former United Nations investigator Gerry Lane and his family seems content. Suddenly, the world is plagued by a mysterious infection turning whole human populations into rampaging mindless zombies. After barely escaping the chaos, Lane is persuaded to go on a mission to investigate this disease. What follows is a perilous trek around the world where Lane must brave horrific dangers and long odds to find answers before human civilization falls.

Infohash : 28F0D984824864DD2C561381406380D4CAA0A2F1






World War Z (2013) IMDB







Source


World.War.Z.2013.Unrated.REPACK.BluRay.Remux.1080p.AVC.DTS-HD.MA.7.1-HiFi

Media Information


General
Unique ID : 251879300069497802195029425631677383080 (0xBD7E304A8C530EE76027DF79CED801A8)
Complete name : World War Z (2013) Unrated (1080p BDRip x265 10bit DTS-HD MA 7.1 - r0b0t) [TAoE].mkv
Format : Matroska
Format version : Version 4
File size : 7.90 GiB
Duration : 2 h 3 min
Overall bit rate mode : Variable
Overall bit rate : 9 196 kb/s
Writing application : Lavf58.29.100
Writing library : Lavf58.29.100
ErrorDetectionType : Per level 1

Video
ID : 1
Format : HEVC
Format/Info : High Efficiency Video Coding
Format profile : Main [email protected]@Main
Codec ID : V_MPEGH/ISO/HEVC
Duration : 2 h 3 min
Bit rate : 4 068 kb/s
Width : 1 920 pixels
Height : 1 080 pixels
Display aspect ratio : 16:9
Frame rate mode : Constant
Frame rate : 23.976 (24000/1001) FPS
Color space : YUV
Chroma subsampling : 4:2:0
Bit depth : 10 bits
Bits/(Pixel*Frame) : 0.082
Stream size : 3.50 GiB (44%)
Title : Encoded by r0b0t for TAoE using Shinguru V1.2
Writing library : x265 3.2+35-acc5d16999e2:[Windows][GCC 9.2.1][64 bit] 10bit
Encoding settings : cpuid=1111039 / frame-threads=5 / numa-pools=12,12,12,12 / wpp / no-pmode / no-pme / no-psnr / no-ssim / log-level=2 / input-csp=1 / input-res=1920x1080 / interlace=0 / total-frames=0 / level-idc=0 / high-tier=1 / uhd-bd=0 / ref=4 / no-allow-non-conformance / no-repeat-headers / annexb / no-aud / no-hrd / info / hash=0 / no-temporal-layers / open-gop / min-keyint=23 / keyint=250 / gop-lookahead=0 / bframes=8 / b-adapt=2 / b-pyramid / bframe-bias=0 / rc-lookahead=80 / lookahead-slices=4 / scenecut=40 / hist-scenecut=0 / radl=0 / no-splice / no-intra-refresh / ctu=64 / min-cu-size=8 / no-rect / no-amp / max-tu-size=32 / tu-inter-depth=1 / tu-intra-depth=1 / limit-tu=0 / rdoq-level=2 / dynamic-rd=0.00 / no-ssim-rd / signhide / no-tskip / nr-intra=0 / nr-inter=0 / no-constrained-intra / no-strong-intra-smoothing / max-merge=3 / limit-refs=3 / limit-modes / me=3 / subme=5 / merange=57 / temporal-mvp / no-frame-dup / no-hme / weightp / no-weightb / no-analyze-src-pics / deblock=0:0 / sao / no-sao-non-deblock / rd=4 / selective-sao=4 / no-early-skip / rskip / no-fast-intra / no-tskip-fast / no-cu-lossless / no-b-intra / no-splitrd-skip / rdpenalty=0 / psy-rd=1.30 / psy-rdoq=2.00 / no-rd-refine / no-lossless / cbqpoffs=0 / crqpoffs=0 / rc=crf / crf=17.0 / qcomp=0.60 / qpstep=4 / stats-write=0 / stats-read=0 / ipratio=1.40 / pbratio=1.30 / aq-mode=4 / aq-strength=1.10 / cutree / zone-count=0 / no-strict-cbr / qg-size=32 / no-rc-grain / qpmax=69 / qpmin=0 / no-const-vbv / sar=1 / overscan=0 / videoformat=5 / range=0 / colorprim=2 / transfer=2 / colormatrix=2 / chromaloc=0 / display-window=0 / cll=0,0 / min-luma=0 / max-luma=1023 / log2-max-poc-lsb=8 / vui-timing-info / vui-hrd-info / slices=1 / no-opt-qp-pps / no-opt-ref-list-length-pps / no-multi-pass-opt-rps / scenecut-bias=0.05 / hist-threshold=0.01 / no-opt-cu-delta-qp / no-aq-motion / no-hdr10 / no-hdr10-opt / no-dhdr10-opt / no-idr-recovery-sei / analysis-reuse-level=0 / analysis-save-reuse-level=0 / analysis-load-reuse-level=0 / scale-factor=0 / refine-intra=0 / refine-inter=0 / refine-mv=1 / refine-ctu-distortion=0 / no-limit-sao / ctu-info=0 / no-lowpass-dct / refine-analysis-type=0 / copy-pic=1 / max-ausize-factor=1.0 / no-dynamic-refine / no-single-sei / no-hevc-aq / no-svt / no-field / qp-adaptation-range=1.00 / no-scenecut-aware-qpconformance-window-offsets / right=0 / bottom=0
Language : English
Default : Yes
Forced : No
Color range : Limited

Audio
ID : 2
Format : DTS XLL
Format/Info : Digital Theater Systems
Commercial name : DTS-HD Master Audio
Codec ID : A_DTS
Duration : 2 h 3 min
Bit rate mode : Variable
Bit rate : 4 991 kb/s
Channel(s) : 8 channels
Channel layout : C L R LFE Lb Rb Lss Rss
Sampling rate : 48.0 kHz
Frame rate : 93.750 FPS (512 SPF)
Bit depth : 24 bits
Compression mode : Lossless
Stream size : 4.29 GiB (54%)
Language : English
Default : Yes
Forced : No

Text #1
ID : 3
Format : PGS
Codec ID : S_HDMV/PGS
Codec ID/Info : Picture based subtitle format used on BDs/HD-DVDs
Duration : 52 min 37 s
Bit rate : 436 b/s
Count of elements : 18
Stream size : 168 KiB (0%)
Title : Forced Captions
Language : English
Default : Yes
Forced : No

Text #2
ID : 4
Format : PGS
Codec ID : S_HDMV/PGS
Codec ID/Info : Picture based subtitle format used on BDs/HD-DVDs
Duration : 1 h 54 min
Bit rate : 27.9 kb/s
Count of elements : 2496
Stream size : 22.8 MiB (0%)
Language : English
Default : No
Forced : No

Text #3
ID : 5
Format : PGS
Codec ID : S_HDMV/PGS
Codec ID/Info : Picture based subtitle format used on BDs/HD-DVDs
Duration : 1 h 54 min
Bit rate : 35.2 kb/s
Count of elements : 3042
Stream size : 28.7 MiB (0%)
Title : SDH
Language : English
Default : No
Forced : No

Text #4
ID : 6
Format : PGS
Codec ID : S_HDMV/PGS
Codec ID/Info : Picture based subtitle format used on BDs/HD-DVDs
Duration : 1 h 54 min
Bit rate : 27.7 kb/s
Count of elements : 2534
Stream size : 22.6 MiB (0%)
Language : French
Default : No
Forced : No

Text #5
ID : 7
Format : PGS
Codec ID : S_HDMV/PGS
Codec ID/Info : Picture based subtitle format used on BDs/HD-DVDs
Duration : 1 h 54 min
Bit rate : 24.6 kb/s
Count of elements : 2404
Stream size : 20.1 MiB (0%)
Language : Spanish
Default : No
Forced : No

Text #6
ID : 8
Format : PGS
Codec ID : S_HDMV/PGS
Codec ID/Info : Picture based subtitle format used on BDs/HD-DVDs
Duration : 1 h 54 min
Bit rate : 23.0 kb/s
Count of elements : 2432
Stream size : 18.8 MiB (0%)
Language : Portuguese
Default : No
Forced : No

Menu
00:00:00.000 : :Chapter 1
00:05:05.180 : :Chapter 2
00:13:54.000 : :Chapter 3
00:22:43.195 : :Chapter 4
00:29:46.034 : :Chapter 5
00:35:21.494 : :Chapter 6
00:42:23.458 : :Chapter 7
00:52:37.946 : :Chapter 8
00:58:53.822 : :Chapter 9
01:07:18.868 : :Chapter 10
01:15:11.757 : :Chapter 11
01:24:02.037 : :Chapter 12
01:29:08.802 : :Chapter 13
01:34:50.518 : :Chapter 14
01:43:45.469 : :Chapter 15
01:52:17.981 : :Chapter 16
01:55:51.653 : :Chapter 17

Source Information


General
Unique ID : 313463345828590229734493116118900783866 (0xEBD2D82BE736D191BC4502971FF1BAFA)
Complete name : World.War.Z.2013.Unrated.REPACK.BluRay.Remux.1080p.AVC.DTS-HD.MA.7.1-HiFi.mkv
Format : Matroska
Format version : Version 4
File size : 29.6 GiB
Duration : 2 h 3 min
Overall bit rate mode : Variable
Overall bit rate : 34.5 Mb/s
Encoded date : UTC 2014-11-08 14:56:10
Writing application : mkvmerge v7.3.0 ('Nouages') 64bit built on Oct 22 2014 18:34:02
Writing library : libebml v1.3.0 + libmatroska v1.4.1

Video
ID : 1
Format : AVC
Format/Info : Advanced Video Codec
Format profile : [email protected]
Format settings : CABAC / 4 Ref Frames
Format settings, CABAC : Yes
Format settings, Reference : 4 frames
Codec ID : V_MPEG4/ISO/AVC
Duration : 2 h 3 min
Bit rate mode : Variable
Bit rate : 29.4 Mb/s
Maximum bit rate : 34.0 Mb/s
Width : 1 920 pixels
Height : 1 080 pixels
Display aspect ratio : 16:9
Frame rate mode : Constant
Frame rate : 23.976 (24000/1001) FPS
Color space : YUV
Chroma subsampling : 4:2:0
Bit depth : 8 bits
Scan type : Progressive
Bits/(Pixel*Frame) : 0.592
Stream size : 25.3 GiB (85%)
Title : MPEG-4 AVC Video - 1080p / 23.976 fps / 16:9 / High Profile 4.1 / 29739 kbps
Language : English
Default : Yes
Forced : No

Audio
ID : 2
Format : DTS XLL
Format/Info : Digital Theater Systems
Commercial name : DTS-HD Master Audio
Codec ID : A_DTS
Duration : 2 h 3 min
Bit rate mode : Variable
Bit rate : 4 991 kb/s
Channel(s) : 6 channels
Channel(s)_Original : 8 channels
ChannelLayout_Original : C L R LFE Lsr Rsr Lss Rss
Sampling rate : 48.0 kHz
Frame rate : 93.750 FPS (512 SPF)
Bit depth : 24 bits
Compression mode : Lossless
Stream size : 4.29 GiB (14%)
Language : English
Default : Yes
Forced : No

Text #1
ID : 3
Format : PGS
Muxing mode : zlib
Codec ID : S_HDMV/PGS
Codec ID/Info : Picture based subtitle format used on BDs/HD-DVDs
Duration : 52 min 37 s
Bit rate : 136 b/s
Count of elements : 18
Stream size : 52.8 KiB (0%)
Title : Forced Captions
Language : English
Default : Yes
Forced : No

Text #2
ID : 4
Format : PGS
Muxing mode : zlib
Codec ID : S_HDMV/PGS
Codec ID/Info : Picture based subtitle format used on BDs/HD-DVDs
Duration : 1 h 54 min
Bit rate : 8 806 b/s
Count of elements : 2496
Stream size : 7.18 MiB (0%)
Language : English
Default : No
Forced : No

Text #3
ID : 5
Format : PGS
Muxing mode : zlib
Codec ID : S_HDMV/PGS
Codec ID/Info : Picture based subtitle format used on BDs/HD-DVDs
Duration : 1 h 54 min
Bit rate : 11.3 kb/s
Count of elements : 3042
Stream size : 9.24 MiB (0%)
Title : SDH
Language : English
Default : No
Forced : No

Text #4
ID : 6
Format : PGS
Muxing mode : zlib
Codec ID : S_HDMV/PGS
Codec ID/Info : Picture based subtitle format used on BDs/HD-DVDs
Duration : 1 h 54 min
Bit rate : 8 620 b/s
Count of elements : 2534
Stream size : 7.03 MiB (0%)
Language : French
Default : No
Forced : No

Text #5
ID : 7
Format : PGS
Muxing mode : zlib
Codec ID : S_HDMV/PGS
Codec ID/Info : Picture based subtitle format used on BDs/HD-DVDs
Duration : 1 h 54 min
Bit rate : 7 908 b/s
Count of elements : 2404
Stream size : 6.45 MiB (0%)
Language : Spanish
Default : No
Forced : No

Text #6
ID : 8
Format : PGS
Muxing mode : zlib
Codec ID : S_HDMV/PGS
Codec ID/Info : Picture based subtitle format used on BDs/HD-DVDs
Duration : 1 h 54 min
Bit rate : 7 550 b/s
Count of elements : 2432
Stream size : 6.16 MiB (0%)
Language : Portuguese
Default : No
Forced : No

Menu
00:00:00.000 : en:Chapter 1
00:05:05.180 : en:Chapter 2
00:13:54.000 : en:Chapter 3
00:22:43.195 : en:Chapter 4
00:29:46.034 : en:Chapter 5
00:35:21.494 : en:Chapter 6
00:42:23.458 : en:Chapter 7
00:52:37.946 : en:Chapter 8
00:58:53.822 : en:Chapter 9
01:07:18.868 : en:Chapter 10
01:15:11.757 : en:Chapter 11
01:24:02.037 : en:Chapter 12
01:29:08.802 : en:Chapter 13
01:34:50.518 : en:Chapter 14
01:43:45.469 : en:Chapter 15
01:52:17.981 : en:Chapter 16
01:55:51.653 : en:Chapter 17

Hello everyone,
We are TAoE, a small team of passionate encoders who love encoding. We try our best to provide you with high quality releases.

Requests for movies and shows are welcome.
We have a form for encode requests which can be found here
Encode requests form
submit your request and it will be added to our encoding request list
You can view our encoding request list here
Encode requests list


When or if we encode it will depend on if we can obtain a good source to encode with and
if one of the TAoE encoders chooses to encode it. Unfortunately we are not able to encode everything,
new members are welcome as that helps us encode more content!

If you would like to join TAoE submit your request here!
TAoE member applications form




.........................................................................................................................................

Files:

  • World War Z (2013) Unrated (1080p BDRip x265 10bit DTS-HD MA 7.1 - r0b0t) [TAoE].mkv (7.9 GB)

Code:

  • udp://tracker.coppersurfer.tk:6969/announce
  • udp://tracker.internetwarriors.net:1337/announce
  • http://tracker.opentrackr.org:1337/announce
  • udp://denis.stalker.upeer.me:6969/announce
  • udp://tracker.internetwarriors.net:1337
  • udp://9.rarbg.me:2720/announce
  • udp://explodie.org:6969/announce
  • udp://tracker.cyberia.is:6969/announce
  • udp://thetracker.org/announce
  • udp://open.demonii.si:1337/announce