Farscape (1999) Season 02 S02 (1080p BluRay x265 HEVC AAC 5.1 Joy) [UTR]

  • CategoryTV
  • TypeHEVC/x265
  • LanguageEnglish
  • Total size7 GB
  • Uploaded ByUTRCorp
  • Downloads738
  • Last checkedJun. 18th '20
  • Date uploadedJun. 17th '20
  • Seeders 76
  • Leechers95

Infohash : 368346523C0010ACADD7877C5EC7F8F8F4CA6DA7








Media Information
Re-uploaded for all that reto quality that you used to enjoy.

Media Information

Code:

General
Format : Matroska
Format version : Version 4 / Version 2
File size : 327 MiB
Duration : 45 min 59 s
Overall bit rate : 994 kb/s
Encoded date : UTC 2015-08-11 01:43:03
Writing application : mkvmerge v8.0.0 ('Til The Day That I Die') 64bit
Writing library : libebml v1.3.1 + libmatroska v1.4.2 / Lavf55.12.0

Video
ID : 1
Format : HEVC
Format/Info : High Efficiency Video Coding
Format profile : [email protected]@Main
Codec ID : V_MPEGH/ISO/HEVC
Duration : 45 min 59 s
Bit rate : 800 kb/s
Width : 1 432 pixels
Height : 1 082 pixels
Display aspect ratio : 4:3
Original display aspect ratio : 4:3
Frame rate mode : Constant
Frame rate : 23.976 (24000/1001) FPS
Color space : YUV
Chroma subsampling : 4:2:0
Bit depth : 8 bits
Bits/(Pixel*Frame) : 0.022
Stream size : 263 MiB (80%)
Writing library : x265 1.5:[Windows][GCC 4.9.0][64 bit]
Encoding settings : wpp / ctu=64 / tu-intra-depth=1 / tu-inter-depth=1 / me=1 / subme=2 / merange=57 / no-rect / no-amp / max-merge=2 / temporal-mvp / no-early-skip / no-fast-cbf / rdpenalty=0 / no-tskip / no-tskip-fast / strong-intra-smoothing / no-lossless / no-cu-lossless / no-constrained-intra / fast-intra / open-gop / interlace=0 / keyint=240 / min-keyint=24 / scenecut=40 / rc-lookahead=15 / bframes=4 / bframe-bias=0 / b-adapt=0 / ref=2 / weightp / no-weightb / aq-mode=1 / aq-strength=1.00 / cbqpoffs=0 / crqpoffs=0 / rd=2 / psy-rd=0.30 / psy-rdoq=0.00 / signhide / lft / sao / no-sao-non-deblock / b-pyramid / cutree / rc=2 / pass / bitrate=800 / qcomp=0.60 / qpmin=0 / qpmax=51 / qpstep=4 / cplxblur=20.0 / qblur=0.5 / ipratio=1.40 / pbratio=1.30
Default : Yes
Forced : No
Color range : Limited
Color primaries : BT.709
Transfer characteristics : BT.709
Matrix coefficients : BT.709

Audio
ID : 2
Format : AAC
Format/Info : Advanced Audio Codec
Format profile : HE-AACv2 / HE-AAC / LC
Codec ID : A_AAC
Duration : 45 min 59 s
Bit rate : 192 kb/s
Channel(s) : 2 channels / 6 channels / 6 channels
Channel positions : Front: L R / Front: L C R, Side: L R, LFE / Front: L C R, Side: L R, LFE
Sampling rate : 48.0 kHz / 48.0 kHz / 24.0 kHz
Frame rate : 23.438 FPS (1024 spf)
Compression mode : Lossy
Delay relative to video : -105 ms
Stream size : 63.2 MiB (19%)
Title : Surround
Default : Yes
Forced : No

Subtitle #1
ID : 3
Format : UTF-8
Codec ID : S_TEXT/UTF8
Codec ID/Info : UTF-8 Plain Text
Duration : 45 min 0 s
Bit rate : 77 b/s
Count of elements : 820
Stream size : 25.7 KiB (0%)
Language : English
Default : No
Forced : No

Subtitle #2
ID : 4
Format : UTF-8
Codec ID : S_TEXT/UTF8
Codec ID/Info : UTF-8 Plain Text
Duration : 43 min 9 s
Bit rate : 96 b/s
Count of elements : 725
Stream size : 30.6 KiB (0%)
Language : French
Default : No
Forced : No



Source Information

Code:

Release:
Farscape.S02.1080p.BluRay.x264-TENEIGHTY 72.09 GB


Code:


Note From UTR
Whilst we are happy for our releases to be re-posted on a platform we aren't on, please do so in an 'as-is' format. We ask that you do not create a new torrent, include all descriptions you see above including the UTR logo, tags, notes and screenshots. If you'd like to become a permanent poster on a website we don't post to, feel free to get in contact with a UTR member.
If possible please donate for seedboxes.
BTC - 1QA5fum5AyXvWzdVCkQzUNvw3Ef15fHRaR
Monero - 8AuksPSzY7fen3HHT1a2342PgVy4J93MKfXG3AAcayV76miTyJ3sNfn38srwrpLirGfeR5DwhTL8GW8pdQgT7bZcJ25ynMx
Dash - Xh4mNs6uwZdpCEX2HSEVwGvPD7yKxZ1Ccd
Ethereum - 0x51c06c94e74c16735a7a6e841ad29fc90a84eb1f



Files:

Farscape Season 2 [1080p BD x265 Joy]
  • Farscape S02E11 Look At The Princess Part 1 A Kiss Is But A Kiss (1080p x265 Joy).mkv (327.2 MB)
  • Farscape S02E01 Mind The Baby (1080p x265 Joy).mkv (327.1 MB)
  • Farscape S02E02 Vitas Mortis (1080p x265 Joy).mkv (327.0 MB)
  • Farscape S02E03 Taking The Stone (1080p x265 Joy).mkv (327.1 MB)
  • Farscape S02E04 Crackers Don't Matter (1080p x265 Joy).mkv (327.1 MB)
  • Farscape S02E05 The Way We Weren't (1080p x265 Joy).mkv (327.0 MB)
  • Farscape S02E06 Picture If You Will (1080p x265 Joy).mkv (327.1 MB)
  • Farscape S02E07 Home On The Remains (1080p x265 Joy).mkv (327.0 MB)
  • Farscape S02E08 Dream A Little Dream (1080p x265 Joy).mkv (327.1 MB)
  • Farscape S02E09 Out Of Their Minds (1080p x265 Joy).mkv (326.9 MB)
  • Farscape S02E10 My Three Crichtons (1080p x265 Joy).mkv (327.0 MB)
  • Encoded by JoyBell (UTR).txt (3.5 KB)
  • Farscape S02E12 Look At The Princess Part 2 I Do, I Think (1080p x265 Joy).mkv (327.1 MB)
  • Farscape S02E13 Look At The Princess Part 3 The Maltese Crichton (1080p x265 Joy).mkv (326.9 MB)
  • Farscape S02E14 Beware Of Dogs (1080p x265 Joy).mkv (327.0 MB)
  • Farscape S02E15 Won't Get Fooled Again (1080p x265 Joy).mkv (327.1 MB)
  • Farscape S02E16 The Locket (1080p x265 Joy).mkv (327.0 MB)
  • Farscape S02E17 The Ugly Truth (1080p x265 Joy).mkv (327.1 MB)
  • Farscape S02E18 A Clockwork Nebari (1080p x265 Joy).mkv (327.1 MB)
  • Farscape S02E19 Liars, Guns And Money Part 1 A Not So Simple Plan (1080p x265 Joy).mkv (327.0 MB)
  • Farscape S02E20 Liars, Guns And Money Part 2 With Friends Like These (1080p x265 Joy).mkv (327.0 MB)
  • Farscape S02E21 Liars, Guns And Money Part 3 Plan B (1080p x265 Joy).mkv (327.0 MB)
  • Farscape S02E22 Die Me, Dichotomy (1080p x265 Joy).mkv (327.1 MB)
  • folder.jpg (60.4 KB)
  • How to play HEVC (THIS FILE).txt (3.8 KB)
  • Ninite K-Lite Codecs Unattended Silent Installer and Updater.website (0.5 KB)

Code:

  • udp://tracker.opentrackr.org:1337/announce
  • udp://9.rarbg.com:2710/announce
  • udp://9.rarbg.to:2710/announce
  • udp://tracker.torrent.eu.org:451/announce
  • udp://tracker.tiny-vps.com:6969/announce
  • udp://open.demonii.si:1337/announce
  • udp://exodus.desync.com:6969/announce