Dumb and Dumber (1994) (1080p BDRip x265 10bit EAC3 5.1 - ArcX)[TAoE].mkv

  • CategoryMovies
  • TypeHEVC/x265
  • LanguageEnglish
  • Total size8.2 GB
  • Uploaded ByGoki
  • Downloads53
  • Last checkedJun. 18th '20
  • Date uploadedJun. 17th '20
  • Seeders 3
  • Leechers0

Dumb and Dumber

Comedy

Lloyd and Harry are two men whose stupidity is really indescribable. When Mary, a beautiful woman, loses an important suitcase with money before she leaves for Aspen, the two friends (who have found the suitcase) decide to return it to her. After some "adventures" they finally get to Aspen where, using the lost money they live it up and fight for Mary's heart.

Infohash : FA1D1FD30CC79EDBBFA5FF2E40A9E69D03EF3D40






Dumb and Dumber (1994) IMDB







Media Information



General
Unique ID : 255077339470657683767746631602879918816 (0xBFE61BCEA8B734F4DD8CD2790638F2E0)
Complete name : Dumb and Dumber (1994) (1080p BDRip x265 10bit EAC3 5.1 - ArcX)[TAoE].mkv
Format : Matroska
Format version : Version 4
File size : 8.17 GiB
Duration : 1 h 52 min
Overall bit rate : 10.4 Mb/s
Movie name : Dumb and Dumber (1994) (1080p BDRip x265 10bit EAC3 5.1 - ArcX)[TAoE].mkv
Writing application : Lavf58.29.100
Writing library : Lavf58.29.100
ErrorDetectionType : Per level 1

Video
ID : 1
Format : HEVC
Format/Info : High Efficiency Video Coding
Format profile : Main [email protected]@Main
Codec ID : V_MPEGH/ISO/HEVC
Duration : 1 h 52 min
Bit rate : 9 408 kb/s
Width : 1 920 pixels
Height : 1 080 pixels
Display aspect ratio : 16:9
Frame rate mode : Constant
Frame rate : 23.976 (24000/1001) FPS
Color space : YUV
Chroma subsampling : 4:2:0
Bit depth : 10 bits
Bits/(Pixel*Frame) : 0.189
Stream size : 7.41 GiB (91%)
Title : Encoded by ArcX for TAoE using Kori-BD V1.1
Writing library : x265 3.2.1+1-b5c86a64bbbe:[Linux][GCC 9.2.1][64 bit] 10bit
Encoding settings : cpuid=1111039 / frame-threads=2 / wpp / no-pmode / no-pme / no-psnr / no-ssim / log-level=2 / input-csp=1 / input-res=1920x1080 / interlace=0 / total-frames=0 / level-idc=0 / high-tier=1 / uhd-bd=0 / ref=4 / no-allow-non-conformance / no-repeat-headers / annexb / no-aud / no-hrd / info / hash=0 / no-temporal-layers / open-gop / min-keyint=23 / keyint=250 / gop-lookahead=0 / bframes=8 / b-adapt=2 / b-pyramid / bframe-bias=0 / rc-lookahead=80 / lookahead-slices=4 / scenecut=40 / radl=0 / no-splice / no-intra-refresh / ctu=64 / min-cu-size=8 / no-rect / no-amp / max-tu-size=32 / tu-inter-depth=1 / tu-intra-depth=1 / limit-tu=0 / rdoq-level=2 / dynamic-rd=0.00 / no-ssim-rd / signhide / no-tskip / nr-intra=0 / nr-inter=0 / no-constrained-intra / no-strong-intra-smoothing / max-merge=3 / limit-refs=3 / limit-modes / me=3 / subme=5 / merange=57 / temporal-mvp / no-hme / weightp / no-weightb / no-analyze-src-pics / deblock=0:0 / sao / no-sao-non-deblock / rd=4 / selective-sao=4 / no-early-skip / rskip / no-fast-intra / no-tskip-fast / no-cu-lossless / no-b-intra / no-splitrd-skip / rdpenalty=0 / psy-rd=1.30 / psy-rdoq=2.00 / no-rd-refine / no-lossless / cbqpoffs=0 / crqpoffs=0 / rc=crf / crf=18.0 / qcomp=0.60 / qpstep=4 / stats-write=0 / stats-read=0 / ipratio=1.40 / pbratio=1.30 / aq-mode=4 / aq-strength=1.10 / cutree / zone-count=0 / no-strict-cbr / qg-size=32 / no-rc-grain / qpmax=69 / qpmin=0 / no-const-vbv / sar=1 / overscan=0 / videoformat=5 / range=0 / colorprim=2 / transfer=2 / colormatrix=2 / chromaloc=0 / display-window=0 / cll=0,0 / min-luma=0 / max-luma=1023 / log2-max-poc-lsb=8 / vui-timing-info / vui-hrd-info / slices=1 / no-opt-qp-pps / no-opt-ref-list-length-pps / no-multi-pass-opt-rps / scenecut-bias=0.05 / no-opt-cu-delta-qp / no-aq-motion / no-hdr / no-hdr-opt / no-dhdr10-opt / no-idr-recovery-sei / analysis-reuse-level=5 / scale-factor=0 / refine-intra=0 / refine-inter=0 / refine-mv=1 / refine-ctu-distortion=0 / no-limit-sao / ctu-info=0 / no-lowpass-dct / refine-analysis-type=0 / copy-pic=1 / max-ausize-factor=1.0 / no-dynamic-refine / no-single-sei / no-hevc-aq / no-svt / no-field / qp-adaptation-range=1.00
Language : English
Default : Yes
Forced : No
Color range : Limited

Audio #1
ID : 2
Format : E-AC-3
Format/Info : Enhanced AC-3
Commercial name : Dolby Digital Plus
Codec ID : A_EAC3
Duration : 1 h 52 min
Bit rate mode : Constant
Bit rate : 448 kb/s
Channel(s) : 6 channels
Channel layout : L R C LFE Ls Rs
Sampling rate : 48.0 kHz
Frame rate : 31.250 FPS (1536 SPF)
Bit depth : 24 bits
Compression mode : Lossy
Delay relative to video : -42 ms
Stream size : 362 MiB (4%)
Writing library : Lavc58.54.100 eac3
Language : English
Service kind : Complete Main
Default : Yes
Forced : No

Audio #2
ID : 3
Format : E-AC-3
Format/Info : Enhanced AC-3
Commercial name : Dolby Digital Plus
Codec ID : A_EAC3
Duration : 1 h 52 min
Bit rate mode : Constant
Bit rate : 448 kb/s
Channel(s) : 6 channels
Channel layout : L R C LFE Ls Rs
Sampling rate : 48.0 kHz
Frame rate : 31.250 FPS (1536 SPF)
Bit depth : 32 bits
Compression mode : Lossy
Delay relative to video : -42 ms
Stream size : 362 MiB (4%)
Title : Compatibility Track / Dolby Digital Audio / 5.1 / 48 kHz / 640 kbps
Writing library : Lavc58.54.100 eac3
Language : English
Service kind : Complete Main
Default : No
Forced : No

Text #1
ID : 4
Format : PGS
Codec ID : S_HDMV/PGS
Codec ID/Info : Picture based subtitle format used on BDs/HD-DVDs
Duration : 1 h 47 min
Bit rate : 31.6 kb/s
Count of elements : 2802
Stream size : 24.3 MiB (0%)
Title : SDH
Language : English
Default : No
Forced : No

Text #2
ID : 5
Format : PGS
Codec ID : S_HDMV/PGS
Codec ID/Info : Picture based subtitle format used on BDs/HD-DVDs
Duration : 1 h 47 min
Bit rate : 30.6 kb/s
Count of elements : 2776
Stream size : 23.4 MiB (0%)
Title : SDH
Language : German
Default : No
Forced : No

Menu
00:00:00.000 : :Main Titles
00:03:43.722 : :Love at First Sight
00:07:02.296 : :The Drop Off
00:10:34.466 : :Danger at the Door
00:15:58.081 : :Sick and Tired
00:19:07.729 : :Road to Aspen
00:21:52.560 : :Truck Stop Trouble
00:26:19.243 : :Whiz Kids
00:31:06.697 : :Lloyd's Dream
00:35:39.219 : :Second Honeymoon
00:40:09.739 : :The Hitchhiker
00:43:38.573 : :Atomic Peppers
00:48:59.727 : :Gassing Up
00:55:16.562 : :Out of Gas
01:01:45.742 : :In the Money
01:06:22.435 : :Gala Preparations
01:09:01.594 : :Snow Owl Benefit
01:18:49.849 : :Ski Date
01:26:00.946 : :Betrayed
01:28:38.061 : :Regular Guy
01:32:33.296 : :Lloyd Makes His Move
01:38:50.924 : :Under the Gun
01:45:41.000 : :Missing the Bus
01:47:44.665 : :End Credits

Source Information



General
Unique ID : 236154868877381222454740807287050073905 (0xB1A9C5FA28CC216E7E3CF7D3C6BBF731)
Complete name : Dumb.and.Dumber.1994.Unrated.1080p.BluRay.Remux.VC-1.TrueHD.5.1-PmP.mkv
Format : Matroska
Format version : Version 4
File size : 16.1 GiB
Duration : 1 h 52 min
Overall bit rate mode : Variable
Overall bit rate : 20.4 Mb/s
Encoded date : UTC 2019-07-12 11:42:40
Writing application : mkvmerge v31.0.0 ('Dolores In A Shoestand') 64-bit
Writing library : libebml v1.3.6 + libmatroska v1.4.9

Video
ID : 1
Format : VC-1
Format profile : [email protected]
Codec ID : V_MS/VFW/FOURCC / WVC1
Codec ID/Hint : Microsoft
Duration : 1 h 52 min
Bit rate : 17.9 Mb/s
Width : 1 920 pixels
Height : 1 080 pixels
Display aspect ratio : 16:9
Frame rate mode : Constant
Frame rate : 23.976 (24000/1001) FPS
Color space : YUV
Chroma subsampling : 4:2:0
Bit depth : 8 bits
Scan type : Progressive
Compression mode : Lossy
Bits/(Pixel*Frame) : 0.361
Stream size : 14.1 GiB (88%)
Title : VC-1 Video / 17946 kbps / 1080p / 23.976 fps / 16:9 / Advanced Profile 3
Language : English
Default : Yes
Forced : No

Audio #1
ID : 2
Format : MLP FBA
Format/Info : Meridian Lossless Packing FBA
Commercial name : Dolby TrueHD
Codec ID : A_TRUEHD
Duration : 1 h 52 min
Bit rate mode : Variable
Bit rate : 1 684 kb/s
Maximum bit rate : 2 772 kb/s
Channel(s) : 6 channels
Channel layout : L R C LFE Ls Rs
Sampling rate : 48.0 kHz
Frame rate : 1 200.000 FPS (40 SPF)
Compression mode : Lossless
Stream size : 1.33 GiB (8%)
Title : Dolby TrueHD Audio / 5.1 / 48 kHz / 1685 kbps / 16-bit
Language : English
Default : Yes
Forced : No

Audio #2
ID : 3
Format : AC-3
Format/Info : Audio Coding 3
Commercial name : Dolby Digital
Codec ID : A_AC3
Duration : 1 h 52 min
Bit rate mode : Constant
Bit rate : 640 kb/s
Channel(s) : 6 channels
Channel layout : L R C LFE Ls Rs
Sampling rate : 48.0 kHz
Frame rate : 31.250 FPS (1536 SPF)
Compression mode : Lossy
Stream size : 517 MiB (3%)
Title : Compatibility Track / Dolby Digital Audio / 5.1 / 48 kHz / 640 kbps
Language : English
Service kind : Complete Main
Default : No
Forced : No

Text #1
ID : 4
Format : PGS
Codec ID : S_HDMV/PGS
Codec ID/Info : Picture based subtitle format used on BDs/HD-DVDs
Duration : 1 h 47 min
Bit rate : 31.6 kb/s
Count of elements : 2802
Stream size : 24.3 MiB (0%)
Title : SDH
Language : English
Default : No
Forced : No

Text #2
ID : 5
Format : PGS
Codec ID : S_HDMV/PGS
Codec ID/Info : Picture based subtitle format used on BDs/HD-DVDs
Duration : 1 h 47 min
Bit rate : 30.6 kb/s
Count of elements : 2776
Stream size : 23.4 MiB (0%)
Title : SDH
Language : German
Default : No
Forced : No

Menu
00:00:00.000 : en:Main Titles
00:03:43.722 : en:Love at First Sight
00:07:02.296 : en:The Drop Off
00:10:34.466 : en:Danger at the Door
00:15:58.081 : en:Sick and Tired
00:19:07.729 : en:Road to Aspen
00:21:52.560 : en:Truck Stop Trouble
00:26:19.243 : en:Whiz Kids
00:31:06.697 : en:Lloyd's Dream
00:35:39.219 : en:Second Honeymoon
00:40:09.739 : en:The Hitchhiker
00:43:38.573 : en:Atomic Peppers
00:48:59.727 : en:Gassing Up
00:55:16.562 : en:Out of Gas
01:01:45.742 : en:In the Money
01:06:22.435 : en:Gala Preparations
01:09:01.594 : en:Snow Owl Benefit
01:18:49.849 : en:Ski Date
01:26:00.946 : en:Betrayed
01:28:38.061 : en:Regular Guy
01:32:33.296 : en:Lloyd Makes His Move
01:38:50.924 : en:Under the Gun
01:45:41.000 : en:Missing the Bus
01:47:44.665 : en:End Credits

Hello everyone,
We are TAoE, a small team of passionate encoders who love encoding. We try our best to provide you with high quality releases.

Requests for movies and shows are welcome.
We have a form for encode requests which can be found here
Encode requests form
submit your request and it will be added to our encoding request list
You can view our encoding request list here
Encode requests list


When or if we encode it will depend on if we can obtain a good source to encode with and
if one of the TAoE encoders chooses to encode it. Unfortunately we are not able to encode everything,
new members are welcome as that helps us encode more content!

If you would like to join TAoE submit your request here!
TAoE member applications form




.........................................................................................................................................

Files:

  • Dumb and Dumber (1994) (1080p BDRip x265 10bit EAC3 5.1 - ArcX)[TAoE].mkv (8.2 GB)

Code:

  • udp://tracker.coppersurfer.tk:6969/announce
  • udp://tracker.internetwarriors.net:1337/announce
  • http://tracker.opentrackr.org:1337/announce
  • udp://denis.stalker.upeer.me:6969/announce
  • udp://tracker.internetwarriors.net:1337
  • udp://9.rarbg.me:2720/announce
  • udp://explodie.org:6969/announce
  • udp://tracker.cyberia.is:6969/announce
  • udp://thetracker.org/announce
  • udp://open.demonii.si:1337/announce