The Evil Dead Collection (1981-2013) 1080p 10bit Bluray x265 HEVC [Org DD 2.0 - DD 5.1 Hindi + DD 5.1 English] MSubs ~ TombDoc

  • CategoryMovies
  • TypeDubs/Dual Audio
  • LanguageHindi
  • Total size12.4 GB
  • Uploaded ByMcuDudeS
  • Downloads425
  • Last checkedJun. 18th '20
  • Date uploadedJun. 17th '20
  • Seeders 1
  • Leechers102

Infohash : FD6B7BC0673AB0ACA40CA1C76023FE70C4294355



2 Terrifying. 2 Frightening. 2 Much!...






The Evil Dead Collection (1981-2013) 1080p 10bit Bluray x265 HEVC [Org DD 2.0 - DD 5.1 Hindi + DD 5.1 English] MSubs ~ TombDoc







The Evil Dead (1981) Remastered 1080p 10bit Bluray x265 HEVC [Org DD 2.0 Hindi + DD 5.1 English] MSubs ~ TombDoc


Code:

Format                                   : Matroska
Format version                           : Version 4
File size                                : 2.94 GiB
Duration                                 : 1 h 25 min
Overall bit rate                         : 4 932 kb/s

Video
ID                                       : 1
Format                                   : HEVC
Format/Info                              : High Efficiency Video Coding
Format profile                           : Main [email protected]@Main
Codec ID                                 : V_MPEGH/ISO/HEVC
Duration                                 : 1 h 25 min
Bit rate                                 : 4 059 kb/s
Width                                    : 1 920 pixels
Height                                   : 1 040 pixels
Display aspect ratio                     : 1.85:1
Frame rate mode                          : Constant
Frame rate                               : 23.976 (24000/1001) FPS
Color space                              : YUV
Chroma subsampling                       : 4:2:0
Bit depth                                : 10 bits
Bits/(Pixel*Frame)                       : 0.085
Stream size                              : 2.42 GiB (82%)
WDefault                                  : Yes
Forced                                   : No

Audio #1
ID                                       : 2
Format                                   : AC-3
Format/Info                              : Audio Coding 3
Commercial name                          : Dolby Digital
Codec ID                                 : A_AC3
Duration                                 : 1 h 25 min
Bit rate mode                            : Constant
Bit rate                                 : 224 kb/s
Channel(s)                               : 2 channels
Channel layout                           : L R
Sampling rate                            : 48.0 kHz
Frame rate                               : 31.250 FPS (1536 SPF)
Compression mode                         : Lossy
Stream size                              : 137 MiB (5%)
Title                                    : Org VCD DD 2.0 224Kbps ~ TombDoc
Language                                 : Hindi
Service kind                             : Complete Main
Default                                  : Yes
Forced                                   : Yes

Audio #2
ID                                       : 3
Format                                   : AC-3
Format/Info                              : Audio Coding 3
Commercial name                          : Dolby Digital
Codec ID                                 : A_AC3
Duration                                 : 1 h 25 min
Bit rate mode                            : Constant
Bit rate                                 : 640 kb/s
Channel(s)                               : 6 channels
Channel layout                           : L R C LFE Ls Rs
Sampling rate                            : 48.0 kHz
Frame rate                               : 31.250 FPS (1536 SPF)
Compression mode                         : Lossy
Stream size                              : 391 MiB (13%)
Title                                    : DD 5.1 English
Language                                 : English
Service kind                             : Complete Main
Default                                  : No
Forced                                   : No

Text #1
ID                                       : 4
Format                                   : PGS
Muxing mode                              : zlib
Codec ID                                 : S_HDMV/PGS
Codec ID/Info                            : Picture based subtitle format used on BDs/HD-DVDs
Duration                                 : 1 h 20 min
Bit rate                                 : 9 799 b/s
Count of elements                        : 691
Stream size                              : 5.62 MiB (0%)
Title                                    : Hindi BD-PGS
Language                                 : Hindi
Default                                  : Yes
Forced                                   : Yes

Text #2
ID                                       : 5
Format                                   : PGS
Muxing mode                              : zlib
Codec ID                                 : S_HDMV/PGS
Codec ID/Info                            : Picture based subtitle format used on BDs/HD-DVDs
Duration                                 : 1 h 20 min
Bit rate                                 : 10.2 kb/s
Count of elements                        : 657
Stream size                              : 5.86 MiB (0%)
Title                                    : Eng BD-PGS
Language                                 : English
Default                                  : No
Forced                                   : No

Menu
00:00:00.000                             : en:Chapter 01
00:05:15.941                             : en:Chapter 02
00:15:26.968                             : en:Chapter 03
00:23:16.604                             : en:Chapter 04
00:31:11.912                             : en:Chapter 05
00:36:49.416                             : en:Chapter 06
00:43:24.685                             : en:Chapter 07
00:51:54.486                             : en:Chapter 08
00:58:46.314                             : en:Chapter 09
01:05:05.902                             : en:Chapter 10
01:12:47.321                             : en:Chapter 11
01:19:00.861                             : en:Chapter 12
01:23:54.196                             : en:Chapter 13






Evil Dead II (1987) Remastered 1080p 10bit Bluray x265 HEVC [Org DD 2.0 Hindi + DD 5.1 English] ESub ~ TombDoc


Code:

Format                                   : Matroska
Format version                           : Version 4
File size                                : 2.87 GiB
Duration                                 : 1 h 24 min
Overall bit rate                         : 4 872 kb/s

Video
ID                                       : 1
Format                                   : HEVC
Format/Info                              : High Efficiency Video Coding
Format profile                           : Main [email protected]@Main
Codec ID                                 : V_MPEGH/ISO/HEVC
Duration                                 : 1 h 24 min
Bit rate                                 : 4 000 kb/s
Width                                    : 1 920 pixels
Height                                   : 1 040 pixels
Display aspect ratio                     : 1.85:1
Frame rate mode                          : Constant
Frame rate                               : 24.000 FPS
Color space                              : YUV
Chroma subsampling                       : 4:2:0
Bit depth                                : 10 bits
Bits/(Pixel*Frame)                       : 0.083
Stream size                              : 2.36 GiB (82%)
Default                                  : Yes
Forced                                   : No

Audio #1
ID                                       : 2
Format                                   : AC-3
Format/Info                              : Audio Coding 3
Commercial name                          : Dolby Digital
Codec ID                                 : A_AC3
Duration                                 : 1 h 24 min
Bit rate mode                            : Constant
Bit rate                                 : 224 kb/s
Channel(s)                               : 2 channels
Channel layout                           : L R
Sampling rate                            : 48.0 kHz
Frame rate                               : 31.250 FPS (1536 SPF)
Compression mode                         : Lossy
Stream size                              : 135 MiB (5%)
Title                                    : Org VCD DD 2.0 224Kbps ~ TombDoc
Language                                 : Hindi
Service kind                             : Complete Main
Default                                  : Yes
Forced                                   : Yes

Audio #2
ID                                       : 3
Format                                   : AC-3
Format/Info                              : Audio Coding 3
Commercial name                          : Dolby Digital
Codec ID                                 : A_AC3
Duration                                 : 1 h 24 min
Bit rate mode                            : Constant
Bit rate                                 : 640 kb/s
Channel(s)                               : 6 channels
Channel layout                           : L R C LFE Ls Rs
Sampling rate                            : 48.0 kHz
Frame rate                               : 31.250 FPS (1536 SPF)
Compression mode                         : Lossy
Stream size                              : 387 MiB (13%)
Title                                    : DD 5.1 English
Language                                 : English
Service kind                             : Complete Main
Default                                  : No
Forced                                   : No

Text
ID                                       : 4
Format                                   : PGS
Muxing mode                              : zlib
Codec ID                                 : S_HDMV/PGS
Codec ID/Info                            : Picture based subtitle format used on BDs/HD-DVDs
Duration                                 : 1 h 20 min
Bit rate                                 : 14.4 kb/s
Count of elements                        : 1198
Stream size                              : 8.30 MiB (0%)
Title                                    : Eng BD-PGS-SDH
Language                                 : English
Default                                  : Yes
Forced                                   : Yes

Menu
00:00:00.000                             : en:Chapter 01
00:06:57.333                             : en:Chapter 02
00:14:24.291                             : en:Chapter 03
00:22:28.000                             : en:Chapter 04
00:26:41.166                             : en:Chapter 05
00:31:36.958                             : en:Chapter 06
00:46:41.875                             : en:Chapter 07
00:56:35.458                             : en:Chapter 08
01:05:13.833                             : en:Chapter 09
01:07:23.416                             : en:Chapter 10
01:14:00.833                             : en:Chapter 11
01:21:11.083                             : en:Chapter 12






Army of Darkness (1992) Director's Cut 1080p 10bit Bluray x265 HEVC [Org DD 2.0 Hindi + DD 5.1 English] ESub ~ TombDoc


Code:

Format                                   : Matroska
Format version                           : Version 4
File size                                : 3.29 GiB
Duration                                 : 1 h 36 min
Overall bit rate                         : 4 884 kb/s

Video
ID                                       : 1
Format                                   : HEVC
Format/Info                              : High Efficiency Video Coding
Format profile                           : Main [email protected]@Main
Codec ID                                 : V_MPEGH/ISO/HEVC
Duration                                 : 1 h 36 min
Bit rate                                 : 4 006 kb/s
Width                                    : 1 920 pixels
Height                                   : 1 080 pixels
Display aspect ratio                     : 16:9
Frame rate mode                          : Constant
Frame rate                               : 23.976 (24000/1001) FPS
Color space                              : YUV
Chroma subsampling                       : 4:2:0
Bit depth                                : 10 bits
Bits/(Pixel*Frame)                       : 0.081
Stream size                              : 2.70 GiB (82%)
Default                                  : Yes
Forced                                   : No

Audio #1
ID                                       : 2
Format                                   : AC-3
Format/Info                              : Audio Coding 3
Commercial name                          : Dolby Digital
Codec ID                                 : A_AC3
Duration                                 : 1 h 36 min
Bit rate mode                            : Constant
Bit rate                                 : 224 kb/s
Channel(s)                               : 2 channels
Channel layout                           : L R
Sampling rate                            : 48.0 kHz
Frame rate                               : 31.250 FPS (1536 SPF)
Compression mode                         : Lossy
Stream size                              : 154 MiB (5%)
Title                                    : Org VCD DD 2.0 224Kbps ~ TombDoc
Language                                 : Hindi
Service kind                             : Complete Main
Default                                  : Yes
Forced                                   : Yes

Audio #2
ID                                       : 3
Format                                   : AC-3
Format/Info                              : Audio Coding 3
Commercial name                          : Dolby Digital
Codec ID                                 : A_AC3
Duration                                 : 1 h 36 min
Bit rate mode                            : Constant
Bit rate                                 : 640 kb/s
Channel(s)                               : 6 channels
Channel layout                           : L R C LFE Ls Rs
Sampling rate                            : 48.0 kHz
Frame rate                               : 31.250 FPS (1536 SPF)
Compression mode                         : Lossy
Stream size                              : 441 MiB (13%)
Title                                    : DD 5.1 English
Language                                 : English
Service kind                             : Complete Main
Default                                  : No
Forced                                   : No

Text
ID                                       : 4
Format                                   : PGS
Muxing mode                              : zlib
Codec ID                                 : S_HDMV/PGS
Codec ID/Info                            : Picture based subtitle format used on BDs/HD-DVDs
Duration                                 : 1 h 30 min
Bit rate                                 : 20.0 kb/s
Count of elements                        : 1627
Stream size                              : 12.9 MiB (0%)
Title                                    : Eng BD-PGS-SDH
Language                                 : English
Default                                  : Yes
Forced                                   : Yes

Menu
00:00:00.000                             : en:Chapter 01
00:12:08.353                             : en:Chapter 02
00:22:36.689                             : en:Chapter 03
00:30:44.885                             : en:Chapter 04
00:37:09.561                             : en:Chapter 05
00:41:14.639                             : en:Chapter 06
00:50:15.763                             : en:Chapter 07
00:54:57.586                             : en:Chapter 08
01:03:49.200                             : en:Chapter 09
01:10:49.454                             : en:Chapter 10
01:18:44.595                             : en:Chapter 11
01:26:53.500                             : en:Chapter 12






Evil Dead (2013) Unrated 1080p 10bit Bluray x265 HEVC [Org DD 5.1 Hindi + DD 5.1 English] ESubs ~ TombDoc


Code:

Format                                   : Matroska
Format version                           : Version 4
File size                                : 3.31 GiB
Duration                                 : 1 h 36 min
Overall bit rate                         : 4 912 kb/s

Video
ID                                       : 1
Format                                   : HEVC
Format/Info                              : High Efficiency Video Coding
Format profile                           : Main [email protected]@Main
Codec ID                                 : V_MPEGH/ISO/HEVC
Duration                                 : 1 h 36 min
Bit rate                                 : 4 001 kb/s
Width                                    : 1 920 pixels
Height                                   : 804 pixels
Display aspect ratio                     : 2.40:1
Frame rate mode                          : Constant
Frame rate                               : 23.976 (24000/1001) FPS
Color space                              : YUV
Chroma subsampling                       : 4:2:0
Bit depth                                : 10 bits
Bits/(Pixel*Frame)                       : 0.108
Stream size                              : 2.70 GiB (81%)
Default                                  : Yes
Forced                                   : No

Audio #1
ID                                       : 2
Format                                   : AC-3
Format/Info                              : Audio Coding 3
Commercial name                          : Dolby Digital
Codec ID                                 : A_AC3
Duration                                 : 1 h 36 min
Bit rate mode                            : Constant
Bit rate                                 : 448 kb/s
Channel(s)                               : 6 channels
Channel layout                           : L R C LFE Ls Rs
Sampling rate                            : 48.0 kHz
Frame rate                               : 31.250 FPS (1536 SPF)
Compression mode                         : Lossy
Stream size                              : 309 MiB (9%)
Title                                    : Org Unrated DvD DD 5.1 448Kbps ~ TombDoc
Language                                 : Hindi
Service kind                             : Complete Main
Default                                  : Yes
Forced                                   : Yes

Audio #2
ID                                       : 3
Format                                   : AC-3
Format/Info                              : Audio Coding 3
Commercial name                          : Dolby Digital
Codec ID                                 : A_AC3
Duration                                 : 1 h 36 min
Bit rate mode                            : Constant
Bit rate                                 : 448 kb/s
Channel(s)                               : 6 channels
Channel layout                           : L R C LFE Ls Rs
Sampling rate                            : 48.0 kHz
Frame rate                               : 31.250 FPS (1536 SPF)
Compression mode                         : Lossy
Stream size                              : 309 MiB (9%)
Title                                    : DD 5.1 English
Language                                 : English
Service kind                             : Complete Main
Default                                  : No
Forced                                   : No

Text #1
ID                                       : 4
Format                                   : PGS
Muxing mode                              : zlib
Codec ID                                 : S_HDMV/PGS
Codec ID/Info                            : Picture based subtitle format used on BDs/HD-DVDs
Duration                                 : 1 h 34 min
Bit rate                                 : 16.2 kb/s
Count of elements                        : 1300
Stream size                              : 10.9 MiB (0%)
Title                                    : Eng BD-PGS
Language                                 : English
Default                                  : No
Forced                                   : No

Text #2
ID                                       : 5
Format                                   : PGS
Muxing mode                              : zlib
Codec ID                                 : S_HDMV/PGS
Codec ID/Info                            : Picture based subtitle format used on BDs/HD-DVDs
Duration                                 : 1 h 35 min
Bit rate                                 : 23.3 kb/s
Count of elements                        : 1945
Stream size                              : 15.9 MiB (0%)
Title                                    : Eng BD-PGS-SDH
Language                                 : English
Default                                  : Yes
Forced                                   : Yes

Menu
00:00:00.000                             : en:Chapter 1
00:05:11.102                             : en:Chapter 2
00:10:23.289                             : en:Chapter 3
00:15:25.215                             : en:Chapter 4
00:19:35.257                             : en:Chapter 5
00:24:18.957                             : en:Chapter 6
00:31:42.734                             : en:Chapter 7
00:36:39.614                             : en:Chapter 8
00:41:41.332                             : en:Chapter 9
00:51:21.620                             : en:Chapter 10
00:57:20.103                             : en:Chapter 11
01:03:46.864                             : en:Chapter 12
01:11:44.133                             : en:Chapter 13
01:17:23.555                             : en:Chapter 14
01:21:07.028                             : en:Chapter 15
01:24:23.975                             : en:Chapter 16



Code:

Source:
-Evil Dead 1981 1080p GER Remaster Blu-ray AVC DTS-HD MA 5.1 BaggerInc
Hindi Sub {Blu-ray CEE}
-Evil Dead II 1987 REMASTERED 1080p GER Blu-ray AVC DTS-HD MA 5.1-UNTOUCHED
-Army Of Darkness 1992 Collector's Edition 1080p US AVC DTS HD MA 5 1-GF44
From Shout Factory 1 Movie, 3 Cuts {Theatrical Version, 81 min - International Cut, 88 min - Director's Cut, 96 min (With Aternative Ending) }
-Evil Dead 2013 JPN Unrated 1080p Blu-ray Remux AVC DTS-HD MA 5.1- BluDragon
-Org Untouched Own VCDs & DvD & Hindi Audios Synced By ReaperZa - Part 1,2,3 {Thanks}
Part 4 Perfectly Synced By ME
#RARE EnjOyY the ClassicS




Files:

The Evil Dead Collection (1981-2013) ~ TombDoc
  • Army of Darkness (1992) Director's Cut 1080p 10bit Bluray x265 HEVC [Org DD 2.0 Hindi + DD 5.1 English] ESub ~ TombDoc.mkv (3.3 GB)
  • Evil Dead (2013) Unrated 1080p 10bit Bluray x265 HEVC [Org DD 5.1 Hindi + DD 5.1 English] ESubs ~ TombDoc.mkv (3.3 GB)
  • Evil Dead II (1987) Remastered 1080p 10bit Bluray x265 HEVC [Org DD 2.0 Hindi + DD 5.1 English] ESub ~ TombDoc.mkv (2.9 GB)
  • T.E.D.C.jpg (460.7 KB)
  • The Evil Dead (1981) Remastered 1080p 10bit Bluray x265 HEVC [Org DD 2.0 Hindi + DD 5.1 English] MSubs ~ TombDoc.mkv (2.9 GB)

Code:

  • udp://tracker.coppersurfer.tk:6969/announce
  • udp://tracker.opentrackr.org:1337/announce
  • udp://tracker.leechers-paradise.org:6969/announce
  • udp://9.rarbg.to:2710/announce
  • udp://9.rarbg.me:2710/announce
  • udp://exodus.desync.com:6969/announce
  • udp://tracker.cyberia.is:6969/announce
  • udp://retracker.lanta-net.ru:2710/announce
  • udp://tracker.tiny-vps.com:6969/announce
  • udp://open.stealth.si:80/announce
  • udp://tracker3.itzmx.com:6961/announce
  • http://tracker4.itzmx.com:2710/announce
  • http://tracker1.itzmx.com:8080/announce
  • udp://tracker.torrent.eu.org:451/announce
  • udp://tracker.moeking.me:6969/announce
  • udp://bt1.archive.org:6969/announce
  • udp://ipv4.tracker.harry.lu:80/announce
  • udp://bt2.archive.org:6969/announce
  • udp://valakas.rollo.dnsabr.com:2710/announce
  • udp://retracker.akado-ural.ru:80/announce