Farscape (1999) Season 04 S04 (1080p BluRay x265 HEVC AAC 5.1 Joy) [UTR]

  • CategoryTV
  • TypeHEVC/x265
  • LanguageEnglish
  • Total size7.5 GB
  • Uploaded ByUTRCorp
  • Downloads607
  • Last checkedJun. 18th '20
  • Date uploadedJun. 17th '20
  • Seeders 53
  • Leechers113

Infohash : D38586FF22489D5AAFB740BA6A99CE9ADFF29297


Media Information
Re-uploaded for all that reto quality that you used to enjoy.

Media Information

Code:

General
Format : Matroska
Format version : Version 4 / Version 2
File size : 361 MiB
Duration : 46 min 9 s
Overall bit rate : 1 094 kb/s
Encoded date : UTC 2015-08-24 05:37:35
Writing application : mkvmerge v8.0.0 ('Til The Day That I Die') 64bit
Writing library : libebml v1.3.1 + libmatroska v1.4.2 / Lavf55.12.0

Video
ID : 1
Format : HEVC
Format/Info : High Efficiency Video Coding
Format profile : [email protected]@Main
Codec ID : V_MPEGH/ISO/HEVC
Duration : 46 min 8 s
Bit rate : 900 kb/s
Width : 1 440 pixels
Height : 810 pixels
Display aspect ratio : 16:9
Frame rate mode : Constant
Frame rate : 23.976 (24000/1001) FPS
Color space : YUV
Chroma subsampling : 4:2:0
Bit depth : 8 bits
Bits/(Pixel*Frame) : 0.032
Stream size : 297 MiB (82%)
Writing library : x265 1.5:[Windows][GCC 4.9.0][64 bit]
Encoding settings : wpp / ctu=64 / tu-intra-depth=1 / tu-inter-depth=1 / me=1 / subme=2 / merange=57 / no-rect / no-amp / max-merge=2 / temporal-mvp / no-early-skip / no-fast-cbf / rdpenalty=0 / no-tskip / no-tskip-fast / strong-intra-smoothing / no-lossless / no-cu-lossless / no-constrained-intra / fast-intra / open-gop / interlace=0 / keyint=240 / min-keyint=24 / scenecut=40 / rc-lookahead=15 / bframes=4 / bframe-bias=0 / b-adapt=0 / ref=2 / weightp / no-weightb / aq-mode=1 / aq-strength=1.00 / cbqpoffs=0 / crqpoffs=0 / rd=2 / psy-rd=0.30 / psy-rdoq=0.00 / signhide / lft / sao / no-sao-non-deblock / b-pyramid / cutree / rc=2 / pass / bitrate=900 / qcomp=0.60 / qpmin=0 / qpmax=51 / qpstep=4 / cplxblur=20.0 / qblur=0.5 / ipratio=1.40 / pbratio=1.30
Default : Yes
Forced : No
Color range : Limited
Color primaries : BT.709
Transfer characteristics : BT.709
Matrix coefficients : BT.709

Audio
ID : 2
Format : AAC
Format/Info : Advanced Audio Codec
Format profile : HE-AACv2 / HE-AAC / LC
Codec ID : A_AAC
Duration : 46 min 9 s
Bit rate : 192 kb/s
Channel(s) : 2 channels / 6 channels / 6 channels
Channel positions : Front: L R / Front: L C R, Side: L R, LFE / Front: L C R, Side: L R, LFE
Sampling rate : 48.0 kHz / 48.0 kHz / 24.0 kHz
Frame rate : 23.438 FPS (1024 spf)
Compression mode : Lossy
Delay relative to video : -105 ms
Stream size : 63.4 MiB (18%)
Title : Surround
Default : Yes
Forced : No

Subtitle #1
ID : 3
Format : UTF-8
Codec ID : S_TEXT/UTF8
Codec ID/Info : UTF-8 Plain Text
Duration : 43 min 18 s
Bit rate : 100 b/s
Count of elements : 611
Stream size : 31.9 KiB (0%)
Language : Bulgarian
Default : No
Forced : No

Subtitle #2
ID : 4
Format : UTF-8
Codec ID : S_TEXT/UTF8
Codec ID/Info : UTF-8 Plain Text
Duration : 42 min 0 s
Bit rate : 63 b/s
Count of elements : 573
Stream size : 19.5 KiB (0%)
Default : No
Forced : No

Subtitle #3
ID : 5
Format : UTF-8
Codec ID : S_TEXT/UTF8
Codec ID/Info : UTF-8 Plain Text
Duration : 44 min 18 s
Bit rate : 60 b/s
Count of elements : 585
Stream size : 19.6 KiB (0%)
Language : Czech
Default : No
Forced : No

Subtitle #4
ID : 6
Format : UTF-8
Codec ID : S_TEXT/UTF8
Codec ID/Info : UTF-8 Plain Text
Duration : 44 min 46 s
Bit rate : 65 b/s
Count of elements : 766
Stream size : 21.6 KiB (0%)
Language : English
Default : No
Forced : No

Subtitle #5
ID : 7
Format : UTF-8
Codec ID : S_TEXT/UTF8
Codec ID/Info : UTF-8 Plain Text
Duration : 43 min 25 s
Bit rate : 56 b/s
Count of elements : 453
Stream size : 17.8 KiB (0%)
Language : Finnish
Default : No
Forced : No

Subtitle #6
ID : 8
Format : UTF-8
Codec ID : S_TEXT/UTF8
Codec ID/Info : UTF-8 Plain Text
Duration : 43 min 18 s
Bit rate : 70 b/s
Count of elements : 583
Stream size : 22.3 KiB (0%)
Language : French
Default : No
Forced : No



Source Information

Code:

Release: Farscape.S04.1080p.BluRay.x264-TENEIGHTY 85.20 GB


Code:


Note From UTR
Whilst we are happy for our releases to be re-posted on a platform we aren't on, please do so in an 'as-is' format. We ask that you do not create a new torrent, include all descriptions you see above including the UTR logo, tags, notes and screenshots. If you'd like to become a permanent poster on a website we don't post to, feel free to get in contact with a UTR member.
If possible please donate for seedboxes.
BTC - 1QA5fum5AyXvWzdVCkQzUNvw3Ef15fHRaR
Monero - 8AuksPSzY7fen3HHT1a2342PgVy4J93MKfXG3AAcayV76miTyJ3sNfn38srwrpLirGfeR5DwhTL8GW8pdQgT7bZcJ25ynMx
Dash - Xh4mNs6uwZdpCEX2HSEVwGvPD7yKxZ1Ccd
Ethereum - 0x51c06c94e74c16735a7a6e841ad29fc90a84eb1f



Files:

Farscape Season 4 [1080p BD x265 Joy]
  • Farscape S04E01 Crichton Kicks (1080p x265 Joy).mkv (361.3 MB)
  • Encoded by JoyBell (UTR).txt (3.5 KB)
  • Farscape S04E02 What Was Lost Sacrifice (1080p x265 Joy).mkv (360.1 MB)
  • Farscape S04E03 What Was Lost Resurrection (1080p x265 Joy).mkv (359.2 MB)
  • Farscape S04E04 Lavas A Many Splendored Thing (1080p x265 Joy).mkv (359.9 MB)
  • Farscape S04E05 Promises (1080p x265 Joy).mkv (360.1 MB)
  • Farscape S04E06 Natural Election (1080p x265 Joy).mkv (360.0 MB)
  • Farscape S04E07 John Quixote (1080p x265 Joy).mkv (359.8 MB)
  • Farscape S04E08 I Shrink Therefore I Am (1080p x265 Joy).mkv (360.1 MB)
  • Farscape S04E09 A Perfect Murder (1080p x265 Joy).mkv (360.0 MB)
  • Farscape S04E10 Coup By Clam (1080p x265 Joy).mkv (360.0 MB)
  • Farscape S04E11 Unrealized Reality (1080p x265 Joy).mkv (360.0 MB)
  • Farscape S04E12 Kansas (1080p x265 Joy).mkv (359.9 MB)
  • Farscape S04E13 Terra Firma (1080p x265 Joy).mkv (360.1 MB)
  • Farscape S04E14 Twice Shy (1080p x265 Joy).mkv (360.0 MB)
  • Farscape S04E15 Mental As Anything (1080p x265 Joy).mkv (360.0 MB)
  • Farscape S04E16 Bringing Home The Beacon (1080p x265 Joy).mkv (327.2 MB)
  • Farscape S04E17 A Constellation Of Doubt (1080p x265 Joy).mkv (327.3 MB)
  • Farscape S04E18 Prayer (1080p x265 Joy).mkv (327.2 MB)
  • Farscape S04E19 We're So Screwed Part 1 - Fetal Attraction (1080p x265 Joy).mkv (327.3 MB)
  • Farscape S04E20 We're So Screwed Part 2 - Hot To Katratzi (1080p x265 Joy).mkv (327.2 MB)
  • Farscape S04E21 We're So Screwed Part 3 - La Bomba (1080p x265 Joy).mkv (326.4 MB)
  • Farscape S04E22 Bad Timing (1080p x265 Joy).mkv (360.3 MB)
  • folder.jpg (23.0 KB)
  • How to play HEVC (THIS FILE).txt (3.8 KB)
  • Ninite K-Lite Codecs Unattended Silent Installer and Updater.website (0.5 KB)

Code:

  • udp://tracker.opentrackr.org:1337/announce
  • udp://9.rarbg.com:2710/announce
  • udp://9.rarbg.to:2710/announce
  • udp://tracker.torrent.eu.org:451/announce
  • udp://tracker.tiny-vps.com:6969/announce
  • udp://open.demonii.si:1337/announce
  • udp://exodus.desync.com:6969/announce