Beastie Boys: Video Anthology (2000) Criterion Collection

  • CategoryMovies
  • Typeh.264/x264
  • LanguageEnglish
  • Total size3.7 GB
  • Uploaded Byephd
  • Downloads73
  • Last checkedJun. 18th '20
  • Date uploadedJun. 17th '20
  • Seeders 7
  • Leechers5

Infohash : 6B24713B32568711B45EA00848D4FA27C822560E

The Beastie Boys are among the most influential groups of the last two decades. As their music has opened hip-hop to a wider audience and changed the parameters of its sound, their ambitious music videos have carried the medium to new levels of artistic expression. This groundbreaking two-disc anthology showcases eighteen videos containing alternate visual angles and multiple audio tracks. Loaded with never-before-seen footage and unreleased music tracks, this special edition also contains a trove of rare still photos and exclusive audio commentary by the band and the video directors.













Video
ID                                       : 1
Format                                   : MPEG Video
Format version                           : Version 2
Format profile                           : [email protected]
Format settings                          : CustomMatrix / BVOP
Format settings, BVOP                    : Yes
Format settings, Matrix                  : Custom
Format settings, GOP                     : M=3, N=15
Format settings, picture structure       : Frame
Codec ID                                 : V_MPEG2
Codec ID/Info                            : MPEG 1 or 2 Video
Duration                                 : 1 h 4 min
Bit rate mode                            : Variable
Bit rate                                 : 7 100 kb/s
Maximum bit rate                         : 9 800 kb/s
Width                                    : 720 pixels
Height                                   : 480 pixels
Display aspect ratio                     : 4:3
Frame rate mode                          : Constant
Frame rate                               : 29.970 (30000/1001) FPS
Standard                                 : NTSC
Color space                              : YUV
Chroma subsampling                       : 4:2:0
Bit depth                                : 8 bits
Scan type                                : Interlaced
Scan order                               : Top Field First
Compression mode                         : Lossy
Bits/(Pixel*Frame)                       : 0.685
Stream size                              : 3.22 GiB (88%)
Language                                 : English
Default                                  : No
Forced                                   : No

Audio #1
ID                                       : 2
Format                                   : AC-3
Format/Info                              : Audio Coding 3
Format settings, Endianness              : Big
Codec ID                                 : A_AC3
Duration                                 : 1 h 4 min
Bit rate mode                            : Constant
Bit rate                                 : 192 kb/s
Channel(s)                               : 2 channels
Channel positions                        : Front: L R
Sampling rate                            : 48.0 kHz
Frame rate                               : 31.250 FPS (1536 SPF)
Bit depth                                : 16 bits
Compression mode                         : Lossy
Stream size                              : 89.0 MiB (2%)
Title                                    : Stereo
Language                                 : English
Service kind                             : Complete Main
Default                                  : Yes
Forced                                   : No



Please let me know if I did anything wrong.

Files:

Beastie Boys Video Anthology (2000)
  • Beastie Boys Video Anthology 2000 Bluray-480p MPEG2 AC3.nfo (1.9 KB)
  • fanart.jpg (242.2 KB)
  • poster.jpg (315.3 KB)
  • Beastie Boys Video Anthology 2000 Bluray-480p MPEG2 AC3.mkv (3.7 GB)

Code:

  • udp://tracker.coppersurfer.tk:6969/announce
  • udp://tracker.opentrackr.org:1337/announce
  • udp://tracker.leechers-paradise.org:6969/announce
  • udp://9.rarbg.to:2710/announce
  • udp://9.rarbg.me:2710/announce
  • udp://exodus.desync.com:6969/announce
  • udp://tracker.cyberia.is:6969/announce
  • udp://retracker.lanta-net.ru:2710/announce
  • udp://tracker.tiny-vps.com:6969/announce
  • udp://open.stealth.si:80/announce
  • udp://tracker.torrent.eu.org:451/announce
  • udp://tracker.moeking.me:6969/announce
  • udp://bt1.archive.org:6969/announce
  • udp://ipv4.tracker.harry.lu:80/announce
  • udp://bt2.archive.org:6969/announce
  • udp://valakas.rollo.dnsabr.com:2710/announce
  • udp://retracker.akado-ural.ru:80/announce
  • http://91.217.91.21:3218/announce
  • http://t.nyaatracker.com:80/announce
  • http://t2.pow7.com/announce
  • http://tracker2.itzmx.com:6961/announce
  • http://share.camoe.cn:8080/announce
  • http://tracker.opentrackr.org:1337/announce
  • http://tracker2.torrentino.com:80/announce
  • http://tracker.yoshi210.com:6969/announce
  • http://explodie.org:6969/announce
  • http://tracker.skyts.net:6969/announce