Resident Evil - Degeneration (2008) (1080p BDRip x265 10bit TrueHD 5.1 - HxD) [TAoE].mkv

  • CategoryMovies
  • TypeHEVC/x265
  • LanguageEnglish
  • Total size4 GB
  • Uploaded ByGoki
  • Downloads37
  • Last checkedJun. 18th '20
  • Date uploadedJun. 18th '20
  • Seeders 1
  • Leechers2

Resident Evil: Degeneration

Action Animation Horror Science Fiction

A zombie attack brings chaos to Harvardville Airport. Leon Kennedy and Claire Redfield , who fought the sinister Umbrella Corporation during the Raccoon City tragedy 7 years ago, are back. In high-octane Resident Evil style, they're ready to battle a rogue warrior who is seeking revenge after his family was killed in Raccoon City. The deadly G-Virus is unleashed and a new mutated monster rampages.

Infohash : BC4CB63137984AD4E0C96D90760B68FEF79B0D88






Resident Evil - Degeneration (2008) IMDb











Media Information



General
Unique ID : 9875670646206219327522011304246126130 (0x76DFC27C524D0AE1DED84FEB7F02632)
Complete name : Resident Evil - Degeneration (2008) (1080p BDRip x265 10bit TrueHD 5.1 - HxD) [TAoE].mkv
Format : Matroska
Format version : Version 4
File size : 4.04 GiB
Duration : 1 h 36 min
Overall bit rate mode : Variable
Overall bit rate : 6 018 kb/s
Movie name : Resident Evil - Degeneration (2008) (1080p BDRip x265 10bit TrueHD 5.1 - HxD) [TAoE].mkv
Encoded date : UTC 2020-05-24 07:59:53
Writing application : mkvmerge v44.0.0 ('Domino') 64-bit
Writing library : libebml v1.3.10 + libmatroska v1.5.2

Video
ID : 1
Format : HEVC
Format/Info : High Efficiency Video Coding
Format profile : Main [email protected]@Main
Codec ID : V_MPEGH/ISO/HEVC
Duration : 1 h 36 min
Bit rate : 4 104 kb/s
Width : 1 920 pixels
Height : 1 080 pixels
Display aspect ratio : 16:9
Frame rate mode : Constant
Frame rate : 23.976 (24000/1001) FPS
Color space : YUV
Chroma subsampling : 4:2:0
Bit depth : 10 bits
Bits/(Pixel*Frame) : 0.083
Stream size : 2.75 GiB (68%)
Writing library : x265 3.3+2-gbe2d82093:[Windows][GCC 9.2.0][64 bit] 10bit
Encoding settings : cpuid=1111039 / frame-threads=3 / numa-pools=8 / wpp / no-pmode / no-pme / no-psnr / no-ssim / log-level=2 / input-csp=1 / input-res=1920x1080 / interlace=0 / total-frames=138240 / level-idc=0 / high-tier=1 / uhd-bd=0 / ref=4 / no-allow-non-conformance / no-repeat-headers / annexb / no-aud / no-hrd / info / hash=0 / no-temporal-layers / open-gop / min-keyint=23 / keyint=250 / gop-lookahead=0 / bframes=8 / b-adapt=2 / b-pyramid / bframe-bias=0 / rc-lookahead=80 / lookahead-slices=4 / scenecut=40 / hist-scenecut=0 / radl=0 / no-splice / no-intra-refresh / ctu=64 / min-cu-size=8 / no-rect / no-amp / max-tu-size=32 / tu-inter-depth=1 / tu-intra-depth=1 / limit-tu=0 / rdoq-level=2 / dynamic-rd=0.00 / no-ssim-rd / signhide / no-tskip / nr-intra=0 / nr-inter=0 / no-constrained-intra / no-strong-intra-smoothing / max-merge=3 / limit-refs=3 / limit-modes / me=3 / subme=5 / merange=57 / temporal-mvp / no-frame-dup / no-hme / weightp / no-weightb / no-analyze-src-pics / deblock=0:0 / sao / no-sao-non-deblock / rd=4 / selective-sao=4 / no-early-skip / rskip / no-fast-intra / no-tskip-fast / no-cu-lossless / no-b-intra / no-splitrd-skip / rdpenalty=0 / psy-rd=1.30 / psy-rdoq=2.00 / no-rd-refine / no-lossless / cbqpoffs=0 / crqpoffs=0 / rc=crf / crf=19.0 / qcomp=0.60 / qpstep=4 / stats-write=0 / stats-read=0 / ipratio=1.40 / pbratio=1.30 / aq-mode=4 / aq-strength=1.10 / cutree / zone-count=0 / no-strict-cbr / qg-size=32 / no-rc-grain / qpmax=69 / qpmin=0 / no-const-vbv / sar=0 / overscan=0 / videoformat=5 / range=0 / colorprim=2 / transfer=2 / colormatrix=2 / chromaloc=0 / display-window=0 / cll=0,0 / min-luma=0 / max-luma=1023 / log2-max-poc-lsb=8 / vui-timing-info / vui-hrd-info / slices=1 / no-opt-qp-pps / no-opt-ref-list-length-pps / no-multi-pass-opt-rps / scenecut-bias=0.05 / hist-threshold=0.01 / no-opt-cu-delta-qp / no-aq-motion / no-hdr10 / no-hdr10-opt / no-dhdr10-opt / no-idr-recovery-sei / analysis-reuse-level=0 / analysis-save-reuse-level=0 / analysis-load-reuse-level=0 / scale-factor=0 / refine-intra=0 / refine-inter=0 / refine-mv=1 / refine-ctu-distortion=0 / no-limit-sao / ctu-info=0 / no-lowpass-dct / refine-analysis-type=0 / copy-pic=1 / max-ausize-factor=1.0 / no-dynamic-refine / no-single-sei / no-hevc-aq / no-svt / no-field / qp-adaptation-range=1.00 / no-scenecut-aware-qpconformance-window-offsets / right=0 / bottom=0
Default : Yes
Forced : No

Audio
ID : 2
Format : MLP FBA
Format/Info : Meridian Lossless Packing FBA
Commercial name : Dolby TrueHD
Codec ID : A_TRUEHD
Duration : 1 h 36 min
Bit rate mode : Variable
Bit rate : 1 748 kb/s
Maximum bit rate : 3 267 kb/s
Channel(s) : 6 channels
Channel layout : L R C LFE Ls Rs
Sampling rate : 48.0 kHz
Frame rate : 1 200.000 FPS (40 SPF)
Compression mode : Lossless
Stream size : 1.17 GiB (29%)
Language : English
Default : No
Forced : No

Text #1
ID : 3
Format : PGS
Muxing mode : zlib
Codec ID : S_HDMV/PGS
Codec ID/Info : Picture based subtitle format used on BDs/HD-DVDs
Duration : 1 h 31 min
Bit rate : 26.5 kb/s
Count of elements : 1742
Stream size : 17.4 MiB (0%)
Title : ENG
Language : English
Default : No
Forced : No

Text #2
ID : 4
Format : PGS
Muxing mode : zlib
Codec ID : S_HDMV/PGS
Codec ID/Info : Picture based subtitle format used on BDs/HD-DVDs
Duration : 1 h 32 min
Bit rate : 21.0 kb/s
Count of elements : 2181
Stream size : 14.0 MiB (0%)
Title : ENG EMBEDDED
Language : English
Default : No
Forced : No

Text #3
ID : 5
Format : PGS
Muxing mode : zlib
Codec ID : S_HDMV/PGS
Codec ID/Info : Picture based subtitle format used on BDs/HD-DVDs
Duration : 1 h 32 min
Bit rate : 22.1 kb/s
Count of elements : 1770
Stream size : 14.5 MiB (0%)
Title : CHI
Language : Chinese
Default : No
Forced : No

Text #4
ID : 6
Format : PGS
Muxing mode : zlib
Codec ID : S_HDMV/PGS
Codec ID/Info : Picture based subtitle format used on BDs/HD-DVDs
Duration : 1 h 31 min
Bit rate : 24.4 kb/s
Count of elements : 1716
Stream size : 16.0 MiB (0%)
Title : FRE
Language : French
Default : No
Forced : No

Text #5
ID : 7
Format : PGS
Muxing mode : zlib
Codec ID : S_HDMV/PGS
Codec ID/Info : Picture based subtitle format used on BDs/HD-DVDs
Duration : 1 h 31 min
Bit rate : 29.2 kb/s
Count of elements : 1760
Stream size : 19.2 MiB (0%)
Title : IND
Language : Indonesian
Default : No
Forced : No

Text #6
ID : 8
Format : PGS
Muxing mode : zlib
Codec ID : S_HDMV/PGS
Codec ID/Info : Picture based subtitle format used on BDs/HD-DVDs
Duration : 1 h 32 min
Bit rate : 20.6 kb/s
Count of elements : 1772
Stream size : 13.7 MiB (0%)
Title : KOR
Language : Korean
Default : No
Forced : No

Text #7
ID : 9
Format : PGS
Muxing mode : zlib
Codec ID : S_HDMV/PGS
Codec ID/Info : Picture based subtitle format used on BDs/HD-DVDs
Duration : 1 h 31 min
Bit rate : 25.9 kb/s
Count of elements : 1774
Stream size : 17.0 MiB (0%)
Title : POR
Language : Portuguese
Default : No
Forced : No

Text #8
ID : 10
Format : PGS
Muxing mode : zlib
Codec ID : S_HDMV/PGS
Codec ID/Info : Picture based subtitle format used on BDs/HD-DVDs
Duration : 1 h 31 min
Bit rate : 27.1 kb/s
Count of elements : 1766
Stream size : 17.8 MiB (0%)
Title : SPA
Language : Spanish
Default : No
Forced : No

Text #9
ID : 11
Format : PGS
Muxing mode : zlib
Codec ID : S_HDMV/PGS
Codec ID/Info : Picture based subtitle format used on BDs/HD-DVDs
Duration : 1 h 32 min
Bit rate : 26.5 kb/s
Count of elements : 1780
Stream size : 17.4 MiB (0%)
Title : THA
Language : Thai
Default : No
Forced : No

Menu
00:00:00.000 : en:00:00:00.000
00:00:40.958 : en:00:00:40.958
00:01:06.358 : en:00:01:06.358
00:02:19.264 : en:00:02:19.264
00:02:30.901 : en:00:02:30.901
00:02:59.012 : en:00:02:59.012
00:03:42.639 : en:00:03:42.639
00:04:36.401 : en:00:04:36.401
00:04:51.249 : en:00:04:51.249
00:05:22.572 : en:00:05:22.572
00:06:55.457 : en:00:06:55.457
00:08:11.866 : en:00:08:11.866
00:09:48.296 : en:00:09:48.296
00:10:19.577 : en:00:10:19.577
00:10:42.433 : en:00:10:42.433
00:11:25.602 : en:00:11:25.602
00:17:05.900 : en:00:17:05.900
00:18:19.140 : en:00:18:19.140
00:19:45.935 : en:00:19:45.935
00:22:57.459 : en:00:22:57.459
00:23:44.798 : en:00:23:44.798
00:25:16.932 : en:00:25:16.932
00:26:30.839 : en:00:26:30.839
00:26:46.522 : en:00:26:46.522
00:28:02.097 : en:00:28:02.097
00:28:14.109 : en:00:28:14.109
00:29:54.710 : en:00:29:54.710
00:31:52.911 : en:00:31:52.911
00:32:17.853 : en:00:32:17.853
00:33:05.609 : en:00:33:05.609
00:33:21.875 : en:00:33:21.875
00:34:09.798 : en:00:34:09.798
00:36:06.915 : en:00:36:06.915
00:43:42.036 : en:00:43:42.036
00:44:25.621 : en:00:44:25.621
00:46:37.920 : en:00:46:37.920
00:47:12.204 : en:00:47:12.204
00:50:20.226 : en:00:50:20.226
00:50:55.970 : en:00:50:55.970
00:52:21.930 : en:00:52:21.930
00:54:07.828 : en:00:54:07.828
00:54:39.443 : en:00:54:39.443
00:56:16.790 : en:00:56:16.790
00:57:14.056 : en:00:57:14.056
00:58:39.933 : en:00:58:39.933
00:59:21.600 : en:00:59:21.600
01:05:43.481 : en:01:05:43.481
01:06:50.757 : en:01:06:50.757
01:09:26.829 : en:01:09:26.829
01:10:25.263 : en:01:10:25.263
01:12:41.232 : en:01:12:41.232
01:13:38.539 : en:01:13:38.539
01:14:08.611 : en:01:14:08.611
01:18:16.275 : en:01:18:16.275
01:30:40.852 : en:01:30:40.852
01:32:12.318 : en:01:32:12.318
01:32:23.455 : en:01:32:23.455




Source



General
Unique ID : 211958961294007555276156912585279798304 (0x9F75CFA137B0A72D88A0F33C6E13FC20)
Complete name : Resident.Evil.Degeneration.2008.Blu-ray.1080p.AVC.TrueHD.5.1.REMUX-FraMeSToR.mkv
Format : Matroska
Format version : Version 2
File size : 17.3 GiB
Duration : 1 h 36 min
Overall bit rate mode : Variable
Overall bit rate : 25.8 Mb/s
Encoded date : UTC 2012-09-19 15:35:57
Writing application : mkvmerge v5.7.0 ('The Whirlwind') built on Jul 8 2012 20:08:51
Writing library : libebml v1.2.3 + libmatroska v1.3.0

Video
ID : 1
Format : AVC
Format/Info : Advanced Video Codec
Format profile : [email protected]
Format settings : CABAC / 2 Ref Frames
Format settings, CABAC : Yes
Format settings, Reference frames : 2 frames
Codec ID : V_MPEG4/ISO/AVC
Duration : 1 h 36 min
Bit rate mode : Variable
Width : 1 920 pixels
Height : 1 080 pixels
Display aspect ratio : 16:9
Frame rate mode : Constant
Frame rate : 23.976 (24000/1001) FPS
Color space : YUV
Chroma subsampling : 4:2:0
Bit depth : 8 bits
Scan type : Progressive
Title : FraMeSToR MPEG-4 AVC Video
Default : Yes
Forced : No

Audio
ID : 2
Format : MLP FBA
Format/Info : Meridian Lossless Packing FBA
Commercial name : Dolby TrueHD
Codec ID : A_TRUEHD
Duration : 1 h 36 min
Bit rate mode : Variable
Maximum bit rate : 3 267 kb/s
Channel(s) : 6 channels
Channel layout : L R C LFE Ls Rs
Sampling rate : 48.0 kHz
Frame rate : 1 200.000 FPS (40 SPF)
Compression mode : Lossless
Title : FraMeSToR TrueHD 5.1
Language : English
Default : Yes
Forced : No

Text #1
ID : 3
Format : PGS
Codec ID : S_HDMV/PGS
Codec ID/Info : Picture based subtitle format used on BDs/HD-DVDs
Title : ENG
Language : English
Default : Yes
Forced : No

Text #2
ID : 4
Format : PGS
Codec ID : S_HDMV/PGS
Codec ID/Info : Picture based subtitle format used on BDs/HD-DVDs
Title : ENG EMBEDDED
Language : English
Default : No
Forced : No

Text #3
ID : 5
Format : PGS
Codec ID : S_HDMV/PGS
Codec ID/Info : Picture based subtitle format used on BDs/HD-DVDs
Title : CHI
Language : Chinese
Default : No
Forced : No

Text #4
ID : 6
Format : PGS
Codec ID : S_HDMV/PGS
Codec ID/Info : Picture based subtitle format used on BDs/HD-DVDs
Title : FRE
Language : French
Default : No
Forced : No

Text #5
ID : 7
Format : PGS
Codec ID : S_HDMV/PGS
Codec ID/Info : Picture based subtitle format used on BDs/HD-DVDs
Title : IND
Language : Indonesian
Default : No
Forced : No

Text #6
ID : 8
Format : PGS
Codec ID : S_HDMV/PGS
Codec ID/Info : Picture based subtitle format used on BDs/HD-DVDs
Title : KOR
Language : Korean
Default : No
Forced : No

Text #7
ID : 9
Format : PGS
Codec ID : S_HDMV/PGS
Codec ID/Info : Picture based subtitle format used on BDs/HD-DVDs
Title : POR
Language : Portuguese
Default : No
Forced : No

Text #8
ID : 10
Format : PGS
Codec ID : S_HDMV/PGS
Codec ID/Info : Picture based subtitle format used on BDs/HD-DVDs
Title : SPA
Language : Spanish
Default : No
Forced : No

Text #9
ID : 11
Format : PGS
Codec ID : S_HDMV/PGS
Codec ID/Info : Picture based subtitle format used on BDs/HD-DVDs
Title : THA
Language : Thai
Default : No
Forced : No

Menu
00:00:00.000 : en:00:00:00.000
00:00:40.958 : en:00:00:40.958
00:01:06.358 : en:00:01:06.358
00:02:19.264 : en:00:02:19.264
00:02:30.901 : en:00:02:30.901
00:02:59.012 : en:00:02:59.012
00:03:42.639 : en:00:03:42.639
00:04:36.401 : en:00:04:36.401
00:04:51.249 : en:00:04:51.249
00:05:22.572 : en:00:05:22.572
00:06:55.457 : en:00:06:55.457
00:08:11.866 : en:00:08:11.866
00:09:48.296 : en:00:09:48.296
00:10:19.577 : en:00:10:19.577
00:10:42.433 : en:00:10:42.433
00:11:25.602 : en:00:11:25.602
00:17:05.900 : en:00:17:05.900
00:18:19.140 : en:00:18:19.140
00:19:45.935 : en:00:19:45.935
00:22:57.459 : en:00:22:57.459
00:23:44.798 : en:00:23:44.798
00:25:16.932 : en:00:25:16.932
00:26:30.839 : en:00:26:30.839
00:26:46.522 : en:00:26:46.522
00:28:02.097 : en:00:28:02.097
00:28:14.109 : en:00:28:14.109
00:29:54.710 : en:00:29:54.710
00:31:52.911 : en:00:31:52.911
00:32:17.853 : en:00:32:17.853
00:33:05.609 : en:00:33:05.609
00:33:21.875 : en:00:33:21.875
00:34:09.798 : en:00:34:09.798
00:36:06.915 : en:00:36:06.915
00:43:42.036 : en:00:43:42.036
00:44:25.621 : en:00:44:25.621
00:46:37.920 : en:00:46:37.920
00:47:12.204 : en:00:47:12.204
00:50:20.226 : en:00:50:20.226
00:50:55.970 : en:00:50:55.970
00:52:21.930 : en:00:52:21.930
00:54:07.828 : en:00:54:07.828
00:54:39.443 : en:00:54:39.443
00:56:16.790 : en:00:56:16.790
00:57:14.056 : en:00:57:14.056
00:58:39.933 : en:00:58:39.933
00:59:21.600 : en:00:59:21.600
01:05:43.481 : en:01:05:43.481
01:06:50.757 : en:01:06:50.757
01:09:26.829 : en:01:09:26.829
01:10:25.263 : en:01:10:25.263
01:12:41.232 : en:01:12:41.232
01:13:38.539 : en:01:13:38.539
01:14:08.611 : en:01:14:08.611
01:18:16.275 : en:01:18:16.275
01:30:40.852 : en:01:30:40.852
01:32:12.318 : en:01:32:12.318
01:32:23.455 : en:01:32:23.455



Hello everyone,
We are TAoE, a small team of passionate encoders who love encoding. We try our best to provide you with high quality releases.

Requests for movies and shows are welcome.
We have a form for encode requests which can be found here
Encode requests form
submit your request and it will be added to our encoding request list
You can view our encoding request list here
Encode requests list


When or if we encode it will depend on if we can obtain a good source to encode with and
if one of the TAoE encoders chooses to encode it. Unfortunately we are not able to encode everything,
new members are welcome as that helps us encode more content!

If you would like to join TAoE submit your request here!
TAoE member applications form




.........................................................................................................................................

Files:

  • Resident Evil - Degeneration (2008) (1080p BDRip x265 10bit TrueHD 5.1 - HxD) [TAoE].mkv (4.0 GB)

Code:

  • udp://tracker.coppersurfer.tk:6969/announce
  • udp://tracker.internetwarriors.net:1337/announce
  • http://tracker.opentrackr.org:1337/announce
  • udp://denis.stalker.upeer.me:6969/announce
  • udp://tracker.internetwarriors.net:1337
  • udp://9.rarbg.me:2720/announce
  • udp://explodie.org:6969/announce
  • udp://tracker.cyberia.is:6969/announce
  • udp://thetracker.org/announce
  • udp://open.demonii.si:1337/announce