The.Candy.Witch.2020.720p.WEB-DL.H264.AC3.LLG

  • CategoryMovies
  • TypeHD
  • LanguageEnglish
  • Total size1.2 GB
  • Uploaded ByLifeLongg
  • Downloads37
  • Last checkedJun. 18th '20
  • Date uploadedJun. 18th '20
  • Seeders 0
  • Leechers13

Infohash : BBD88D8BEFC422C59F62D436AB5CE6506DCFFD6B

Quote:




******************************Thumbnail:**********************



******************************Screenshots:********************

screenshot 1

screenshot 2

screenshot 3

screenshot 4

screenshot 5

screenshot 6

screenshot 7

screenshot 8

screenshot 9

screenshot 0


******************************************************

18+.The.Candy.Witch.2020.720p.WEB-DL.H264.AC3.LLG.mp4
Format : MPEG-4
Format profile : Base Media
Codec ID : isom (isom/iso2/avc1/mp41)
File size : 1.22 GiB
Duration : 1 h 34 min
Overall bit rate mode : Variable
Overall bit rate : 1 856 kb/s
Writing application : Lavf57.83.100

Video
ID : 1
Format : AVC
Format/Info : Advanced Video Codec
Format profile : [email protected]
Format settings : CABAC / 1 Ref Frames
Format settings, CABAC : Yes
Format settings, Reference frames : 1 frame
Codec ID : avc1
Codec ID/Info : Advanced Video Coding
Duration : 1 h 34 min
Bit rate mode : Variable
Bit rate : 1 469 kb/s
Maximum bit rate : 4 500 kb/s
Width : 1 280 pixels
Height : 538 pixels
Display aspect ratio : 2.40:1
Original display aspect ratio : 2.40:1
Frame rate mode : Constant
Frame rate : 24.000 FPS
Color space : YUV
Chroma subsampling : 4:2:0
Bit depth : 8 bits
Scan type : Progressive
Bits/(Pixel*Frame) : 0.089
Stream size : 987 MiB (79%)
Language : English
Menus : 3
Codec configuration box : avcC

Audio
ID : 2
Format : AC-3
Format/Info : Audio Coding 3
Commercial name : Dolby Digital
Codec ID : ac-3
Duration : 1 h 34 min
Bit rate mode : Constant
Bit rate : 384 kb/s
Channel(s) : 6 channels
Channel layout : L R C LFE Ls Rs
Sampling rate : 48.0 kHz
Frame rate : 31.250 FPS (1536 SPF)
Compression mode : Lossy
Stream size : 258 MiB (21%)
Language : English
Service kind : Complete Main
Default : Yes
Alternate group : 1




********************************************************


[quote]

Files:

18+.The.Candy.Witch.2020.720p.WEB-DL.H264.AC3.LLG
  • Sample.ts (11.7 MB)
  • 18+.The.Candy.Witch.2020.720p.WEB-DL.H264.AC3.LLG.mp4 (1.2 GB)

Code:

  • udp://tracker.openbittorrent.com:80/announce
  • udp://tracker.opentrackr.org:1337/announce
  • UDP://TRACKER.LEECHERS-PARADISE.ORG:6969/ANNOUNCE