Kadakh (2020) Hindi HDRip - 720p - x264 - AAC - 900MB - ESub - TamilMV

  • CategoryMovies
  • TypeBollywood
  • LanguageHindi
  • Total size890.4 MB
  • Uploaded ByKingTMV
  • Downloads122
  • Last checkedJun. 18th '20
  • Date uploadedJun. 18th '20
  • Seeders 30
  • Leechers40

Infohash : 5CCE913CA1FCB7487DE20D9D0D97C21FD6534C77

Kadakh (2020) Hindi HDRip - 720p - x264 - AAC - 900MB - ESub - TamilMV



SCREENSHOTS :



Quote:

Media Info :

Video
ID : 1
Format : AVC
Format/Info : Advanced Video Codec
Format profile : [email protected]
Format settings : CABAC / 4 Ref Frames
Format settings, CABAC : Yes
Format settings, Reference : 4 frames
Codec ID : V_MPEG4/ISO/AVC
Duration : 1 h 35 min
Bit rate : 1 256 kb/s
Width : 1 280 pixels
Height : 536 pixels
Display aspect ratio : 2.40:1
Frame rate mode : Constant
Frame rate : 25.000 FPS
Color space : YUV
Chroma subsampling : 4:2:0
Bit depth : 8 bits
Scan type : Progressive
Bits/(Pixel*Frame) : 0.073
Stream size : 845 MiB (95%)
Title : www.1TamilMV.xyz
Writing library : x264 core 157 r2935 545de2f
Language : Hindi
Default : Yes
Forced : No

Audio
ID : 2
Format : AAC LC
Format/Info : Advanced Audio Codec Low Complexity
Codec ID : A_AAC-2
Duration : 1 h 35 min
Bit rate : 64.0 kb/s
Channel(s) : 2 channels
Channel layout : L R
Sampling rate : 48.0 kHz
Frame rate : 46.875 FPS (1024 SPF)
Compression mode : Lossy
Stream size : 43.5 MiB (5%)
Title : www.1TamilMV.xyz
Language : Hindi
Default : Yes
Forced : No

Text
ID : 3
Format : UTF-8
Codec ID : S_TEXT/UTF8
Codec ID/Info : UTF-8 Plain Text
Duration : 1 h 32 min
Bit rate : 68 b/s
Count of elements : 1334
Stream size : 46.8 KiB (0%)
Title : www.1TamilMV.xyz
Language : English
Default : Yes
Forced : No


Files:

Kadakh (2020) Hindi HDRip - 720p - x264 - AAC - 900MB - ESub - TamilMV
  • A TamilMV Release.txt (0.3 KB)
  • Kadakh (2020) Hindi HDRip - 720p - x264 - AAC - 900MB - ESub - TamilMV.mkv (890.4 MB)

Code:

  • udp://tracker.openbittorrent.com:80/announce
  • udp://tracker.opentrackr.org:1337/announce
  • UDP://TRACKER.LEECHERS-PARADISE.ORG:6969/ANNOUNCE
  • UDP://TRACKER.COPPERSURFER.TK:6969/ANNOUNCE
  • UDP://TRACKER.OPENTRACKR.ORG:1337/ANNOUNCE
  • UDP://TRACKER.ZER0DAY.TO:1337/ANNOUNCE
  • UDP://EDDIE4.NL:6969/ANNOUNCE