Kadakh (2020) Sony Liv Hindi 720p WEBRip AAC. Eng Sub.

  • CategoryMovies
  • TypeBollywood
  • LanguageHindi
  • Total size883.7 MB
  • Uploaded Bykrishh1337
  • Downloads458
  • Last checkedJun. 18th '20
  • Date uploadedJun. 18th '20
  • Seeders 33
  • Leechers75

Infohash : C197ADCF47E0AF265AF73E67E1518C1E0812F320



Kadakh :
This is a Hindi language drama film, that centres on a couple faced with the prospect
of hiding a dead body in their home, even as 25 of their friends arrive at their home
for a lavish Diwali party thrown by the couple.

Starring: Chandrachoor Rai, Cyrus Sahukar, Kalki Koechlin, Mansi Multani, Palomi Ghosh,
Rajat Kapoor, Ranvir Shorey, Sagar Deshmukh, Shruti Seth and Tara Sharma.

Directed by Rajat Kapoor.

Format : Matroska
Format version : Version 4
File size : 884 MiB
Duration : 1 h 35 min
Overall bit rate : 1 299 kb/s

Video
ID : 1
Format : AVC
Format/Info : Advanced Video Codec
Format profile : [email protected]
Format settings : CABAC / 4 Ref Frames
Format settings, CABAC : Yes
Format settings, Reference : 4 frames
Codec ID : V_MPEG4/ISO/AVC
Duration : 1 h 35 min
Bit rate : 1 040 kb/s
Width : 1 280 pixels
Height : 536 pixels
Display aspect ratio : 2.40:1
Frame rate mode : Constant
Frame rate : 25.000 FPS
Color space : YUV
Chroma subsampling : 4:2:0
Bit depth : 8 bits
Scan type : Progressive

Audio #1
ID : 2
Format : AAC LC
Format/Info : Advanced Audio Codec Low Complexity
Codec ID : A_AAC-2
Duration : 1 h 35 min
Bit rate : 132 kb/s
Channel(s) : 2 channels
Channel layout : L R
Sampling rate : 48.0 kHz
Frame rate : 46.875 FPS (1024 SPF)
Compression mode : Lossy
Stream size : 91.7 MiB (10%)
Language : Hindi
Default : Yes
Forced : Yes


Text #1
ID : 3
Format : UTF-8
Codec ID : S_TEXT/UTF8
Codec ID/Info : UTF-8 Plain Text
Duration : 1 h 32 min
Bit rate : 177 b/s
Count of elements : 1334
Stream size : 121 KiB (0%)
Language : Hindi
Default : Yes
Forced : No

Text
ID : 4
Format : UTF-8
Codec ID : S_TEXT/UTF8
Codec ID/Info : UTF-8 Plain Text
Duration : 1 h 32 min
Bit rate : 68 b/s
Count of elements : 1334
Stream size : 46.8 KiB (0%)
Language : English
Default : Yes
Forced : No

Files:

  • Kadakh (2020) Sony Liv Hindi 720p WEBRip AAC. Eng Sub.mkv (883.7 MB)

Code:

  • udp://exodus.desync.com:6969/announce
  • http://tracker3.itzmx.com:8080/announce
  • udp://explodie.org:6969/announce
  • udp://9.rarbg.to:2800/announce
  • http://tracker3.itzmx.com:6961/announce
  • http://tracker1.itzmx.com:8080/announce
  • udp://tracker.tiny-vps.com:6969/announce
  • udp://tracker.moeking.me:6969/announce
  • udp://tracker.torrent.eu.org:451/announce
  • udp://ipv4.tracker.harry.lu:80/announce
  • udp://tracker.opentrackr.org:1337/announce
  • http://explodie.org:6969/announce
  • http://tracker.opentrackr.org:1337/announce
  • udp://tracker.leechers-paradise.org:6969/announce
  • udp://tracker.open-internet.nl:6969/announce
  • udp://tracker.coppersurfer.tk:6969/announce
  • http://t.nyaatracker.com:80/announce
  • udp://open.stealth.si:80/announce
  • UDP://TRACKER.COPPERSURFER.TK:6969/ANNOUNCE
  • UDP://TRACKER.OPENTRACKR.ORG:1337/ANNOUNCE
  • UDP://TRACKER.LEECHERS-PARADISE.ORG:6969/ANNOUNCE