Your.Honor.S01.2020.720p.WEB-DL.AAC.2.0.x265 By MovieAIO

  • CategoryTV
  • TypeHEVC/x265
  • LanguageHindi
  • Total size2.4 GB
  • Uploaded ByMansimran
  • Downloads624
  • Last checkedJun. 18th '20
  • Date uploadedJun. 18th '20
  • Seeders 0
  • Leechers0

Infohash : 0B723A7C095EF46FF50808500C5E136F70BE7138

Quote:

MovieAIO.in - Your.Honor.S01.2020.720p.WEB-DL.AAC.2.0.x265





Visit Website [Google Links] - Movieaio



Telegram Channel - Click To Join






Quote:

Poster :




Quote:










Thanks for the download

Dont Forget to seed As much you Download

- Movieaio



Code:

General
Complete name : MovieAIO.in - Your.Honor.S01E01.2020.720p.WEB-DL.AAC.2.0.x265.mkv
Format : Matroska
Format version : Version 4
File size : 200 MiB
Duration : 36 min 19 s
Overall bit rate : 771 kb/s
Movie name : MovieAIO.in
Writing application : Lavf58.45.100
Writing library : Lavf58.45.100
ErrorDetectionType : Per level 1

Video
ID : 1
Format : HEVC
Format/Info : High Efficiency Video Coding
Format profile : [email protected]@Main
Codec ID : V_MPEGH/ISO/HEVC
Duration : 36 min 19 s
Bit rate : 2 819 kb/s
Width : 1 274 pixels
Height : 720 pixels
Display aspect ratio : 16:9
Frame rate mode : Constant
Frame rate : 25.000 FPS
Color space : YUV
Chroma subsampling : 4:2:0
Bit depth : 8 bits
Bits/(Pixel*Frame) : 0.123
Stream size : 733 MiB
Title : MovieAIO.in
Writing library : x265 3.4_RC1+3-18610b4f88bc:[Linux][GCC 9.3.0][64 bit] 8bit
Default : Yes
Forced : No
Color range : Limited

Audio
ID : 2
Format : AAC LC
Format/Info : Advanced Audio Codec Low Complexity
Codec ID : A_AAC-2
Duration : 36 min 19 s
Bit rate : 64.0 kb/s
Channel(s) : 1 channel
Channel layout : C
Sampling rate : 44.1 kHz
Frame rate : 43.066 FPS (1024 SPF)
Compression mode : Lossy
Stream size : 16.6 MiB (8%)
Title : Hindi
Writing library : Lavc58.91.100 libfdk_aac
Language : Hindi
Default : Yes
Forced : No

Files:

MovieAIO.in - Your.Honor.S01.2020.720p.WEB-DL.AAC.2.0.x265
  • Movieaio.in.txt (0.2 KB)
  • MovieAIO.in - Your.Honor.S01E03.2020.720p.WEB-DL.AAC.2.0.x265.mkv (189.3 MB)
  • MovieAIO.in - Your.Honor.S01E04.2020.720p.WEB-DL.AAC.2.0.x265.mkv (193.7 MB)
  • MovieAIO.in - Your.Honor.S01E02.2020.720p.WEB-DL.AAC.2.0.x265.mkv (196.2 MB)
  • MovieAIO.in - Your.Honor.S01E05.2020.720p.WEB-DL.AAC.2.0.x265.mkv (196.4 MB)
  • MovieAIO.in - Your.Honor.S01E12.2020.720p.WEB-DL.AAC.2.0.x265.mkv (196.9 MB)
  • MovieAIO.in - Your.Honor.S01E01.2020.720p.WEB-DL.AAC.2.0.x265.mkv (200.2 MB)
  • MovieAIO.in - Your.Honor.S01E09.2020.720p.WEB-DL.AAC.2.0.x265.mkv (200.3 MB)
  • MovieAIO.in - Your.Honor.S01E11.2020.720p.WEB-DL.AAC.2.0.x265.mkv (203.3 MB)
  • MovieAIO.in - Your.Honor.S01E07.2020.720p.WEB-DL.AAC.2.0.x265.mkv (205.2 MB)
  • MovieAIO.in - Your.Honor.S01E08.2020.720p.WEB-DL.AAC.2.0.x265.mkv (205.7 MB)
  • MovieAIO.in - Your.Honor.S01E10.2020.720p.WEB-DL.AAC.2.0.x265.mkv (212.2 MB)
  • MovieAIO.in - Your.Honor.S01E06.2020.720p.WEB-DL.AAC.2.0.x265.mkv (215.4 MB)

Code:

  • udp://tracker.opentrackr.org:1337/announce
  • udp://p4p.arenabg.com:1337/announce
  • udp://denis.stalker.upeer.me:6969/announce
  • https://tracker.vectahosting.eu:2053/announce
  • udp://tracker.sbsub.com:2710/announce
  • https://tracker.opentracker.se:443/announce
  • https://tracker.no-dmca.ninja:2087/announce
  • https://tracker.fr.eu.org:8443/announce
  • https://tracker.heaterdown.eu:443/announce
  • https://tracker.sloppyta.co:443/announce
  • udp://open.stealth.si:80/announce
  • udp://ipv4.tracker.harry.lu:80/announce
  • udp://tracker.torrent.eu.org:451/announce
  • udp://tracker.uw0.xyz:6969/announce