Mafia (2020) Season 1 1080p Zee5 WEB-DL x264 Dual Audio [Hindi DD...

  • Category TV
  • Type HD
  • Language Hindi
  • Total size 3.0 GB
  • Uploaded By Suryadipta
  • Downloads 10275
  • Last checked 4 weeks ago
  • Date uploaded 1 month ago
  • Seeders 114
  • Leechers 54

Infohash : 9404D438B1D931955AAAE2BB2411272853229AE5




Movie name :


Mafia (2020) Season 1 1080p Zee5 WEB-DL x264 Dual Audio [Hindi DD2.0 - Bengali DD2.0] 3GB  [HDWebMovies]


General
Format : Matroska
Format version : Version 4
File size : 3.03 GiB
Duration : 4 h 12 min
Overall bit rate mode : Variable
Overall bit rate : 1 718 kb/s
Encoded date : UTC 2020-07-09 19:54:51
Writing application : mkvmerge v45.0.0 ('Heaven in Pennies') 32-bit
Writing library : libebml v1.3.10 + libmatroska v1.5.2

Video
ID : 1
Format : AVC
Format/Info : Advanced Video Codec
Format profile : [email protected]
Format settings : CABAC / 4 Ref Frames
Format settings, CABAC : Yes
Format settings, Reference frames : 4 frames
Format settings, GOP : M=5, N=50
Codec ID : V_MPEG4/ISO/AVC
Duration : 4 h 12 min
Bit rate mode : Variable
Bit rate : 1 403 kb/s
Maximum bit rate : 2 200 kb/s
Width : 1 920 pixels
Height : 1 080 pixels
Display aspect ratio : 16:9
Frame rate mode : Constant
Frame rate : 25.000 FPS
Color space : YUV
Chroma subsampling : 4:2:0
Bit depth : 8 bits
Scan type : Progressive
Bits/(Pixel*Frame) : 0.027
Stream size : 2.47 GiB (82%)
Default : Yes
Forced : No
Color range : Limited
Color primaries : BT.709
Transfer characteristics : BT.709
Matrix coefficients : BT.709

Audio #1
ID : 2
Format : AAC LC
Format/Info : Advanced Audio Codec Low Complexity
Codec ID : A_AAC-2
Duration : 4 h 12 min
Bit rate : 192 kb/s
Channel(s) : 2 channels
Channel layout : L R
Sampling rate : 48.0 kHz
Frame rate : 46.875 FPS (1024 SPF)
Compression mode : Lossy
Delay relative to video : -33 ms
Stream size : 342 MiB (11%)
Language : Hindi
Default : Yes
Forced : No

Audio #2
ID : 3
Format : AAC LC
Format/Info : Advanced Audio Codec Low Complexity
Codec ID : A_AAC-2
Duration : 4 h 12 min
Bit rate : 123 kb/s
Channel(s) : 2 channels
Channel layout : L R
Sampling rate : 48.0 kHz
Frame rate : 46.875 FPS (1024 SPF)
Compression mode : Lossy
Delay relative to video : -33 ms
Stream size : 222 MiB (7%)
Language : Bengali
Default : No
Forced : No


                                       











Files:

Mafia (2020) 1080p Zee5 WEB-DL x264 Dual Audio [Hindi DD2.0 - Bengali DD2.0] 3GB [HDWEBMovies]
  • Ep 7 - Split.mkv (330.5 MB)
  • Ep 4 - Addiction.mkv (357.6 MB)
  • Ep 2 - Best Friends.mkv (366.6 MB)
  • Ep 3 - The Stranger.mkv (372.1 MB)
  • Ep 6 - Lust.mkv (374.6 MB)
  • Ep 5 - Robinhood.mkv (397.8 MB)
  • Ep 8 - Vendetta.mkv (411.0 MB)
  • Ep 1 - Reunion.mkv (493.9 MB)

Comments

Code:

  • udp://tracker.leechers-paradise.org:6969/announce
  • udp://tracker.coppersurfer.tk:6969/announce
  • udp://tracker.cyberia.is:6969/announce
  • udp://tracker.iamhansen.xyz:2000/announce
  • udp://p4p.arenabg.com:1337/announce
  • udp://explodie.org:6969/announce
  • udp://tracker.opentrackr.org:1337/announce
  • udp://tracker.tiny-vps.com:6969/announce
  • udp://exodus.desync.com:6969/announce
  • udp://tracker.torrent.eu.org:451/announce
  • udp://tracker.moeking.me:6969/announce
  • udp://ipv4.tracker.harry.lu:80/announce
  • udp://open.stealth.si:80/announce
  • udp://9.rarbg.to:2710/announce
  • udp://opentor.org:2710/announce