Transformers - War for Cybertron (2020) S01 (1080p NF Webrip x265...

  • Category TV
  • Type HEVC/x265
  • Language English
  • Total size 3.9 GB
  • Uploaded By Goki
  • Downloads 654
  • Last checked 5 days ago
  • Date uploaded 1 week ago
  • Seeders 24
  • Leechers 7

Infohash : 2C4559AAFCDE43F3BAD0C8DE2F0027FFAE1D72C1



Hello everyone,
We are TAoE, a small team of passionate encoders who love encoding. We try our best to provide you with high quality releases.

Requests for movies and shows are welcome.
We have a form for encode requests which can be found here
Encode requests form
submit your request and it will be added to our encoding request list
You can view our encoding request list here
Encode requests list


When or if we encode it will depend on if we can obtain a good source to encode with and
if one of the TAoE encoders chooses to encode it. Unfortunately we are not able to encode everything,
new members are welcome as that helps us encode more content!

If you would like to join TAoE submit your request here!
TAoE member applications form




Transformers: War for Cybertron (2020) IMDB












Encode Media Information



General
Unique ID : 85206643488023924819928556830437634650 (0x401A33DE9ADB13A4E7281FA3056B725A)
Complete name : Transformers - War for Cybertron (2020) S01E01 (1080p NF Webrip x265 10bit EAC3 5.1 Atmos - Goki)[TAoE].mkv
Format : Matroska
Format version : Version 4
File size : 673 MiB
Duration : 24 min 54 s
Overall bit rate : 3 780 kb/s
Writing application : Lavf58.29.100
Writing library : Lavf58.29.100
ErrorDetectionType : Per level 1

Video
ID : 1
Format : HEVC
Format/Info : High Efficiency Video Coding
Format profile : Main [email protected]@Main
Codec ID : V_MPEGH/ISO/HEVC
Duration : 24 min 54 s
Bit rate : 3 006 kb/s
Width : 1 920 pixels
Height : 1 080 pixels
Display aspect ratio : 16:9
Frame rate mode : Constant
Frame rate : 24.000 FPS
Color space : YUV
Chroma subsampling : 4:2:0
Bit depth : 10 bits
Bits/(Pixel*Frame) : 0.060
Stream size : 535 MiB (80%)
Title : Encoded by Goki for TAoE using Shinguru V2.0
Writing library : x265 3.2+35-acc5d16999e2:[Windows][GCC 9.2.1][64 bit] 10bit
Encoding settings : cpuid=1111039 / frame-threads=4 / numa-pools=24 / wpp / no-pmode / no-pme / no-psnr / no-ssim / log-level=2 / input-csp=1 / input-res=1920x1080 / interlace=0 / total-frames=0 / level-idc=0 / high-tier=1 / uhd-bd=0 / ref=4 / no-allow-non-conformance / no-repeat-headers / annexb / no-aud / no-hrd / info / hash=0 / no-temporal-layers / open-gop / min-keyint=24 / keyint=250 / gop-lookahead=0 / bframes=8 / b-adapt=2 / b-pyramid / bframe-bias=0 / rc-lookahead=80 / lookahead-slices=4 / scenecut=40 / hist-scenecut=0 / radl=0 / no-splice / no-intra-refresh / ctu=64 / min-cu-size=8 / no-rect / no-amp / max-tu-size=32 / tu-inter-depth=1 / tu-intra-depth=1 / limit-tu=0 / rdoq-level=2 / dynamic-rd=0.00 / no-ssim-rd / signhide / no-tskip / nr-intra=0 / nr-inter=0 / no-constrained-intra / no-strong-intra-smoothing / max-merge=3 / limit-refs=3 / limit-modes / me=3 / subme=5 / merange=57 / temporal-mvp / no-frame-dup / no-hme / weightp / no-weightb / no-analyze-src-pics / deblock=0:0 / sao / no-sao-non-deblock / rd=4 / selective-sao=4 / no-early-skip / rskip / no-fast-intra / no-tskip-fast / no-cu-lossless / no-b-intra / no-splitrd-skip / rdpenalty=0 / psy-rd=1.30 / psy-rdoq=2.00 / no-rd-refine / no-lossless / cbqpoffs=0 / crqpoffs=0 / rc=abr / bitrate=3000 / qcomp=0.60 / qpstep=4 / stats-write=0 / stats-read=2 / cplxblur=20.0 / qblur=0.5 / ipratio=1.40 / pbratio=1.30 / aq-mode=4 / aq-strength=1.10 / cutree / zone-count=0 / no-strict-cbr / qg-size=32 / no-rc-grain / qpmax=69 / qpmin=0 / no-const-vbv / sar=1 / overscan=0 / videoformat=5 / range=0 / colorprim=2 / transfer=2 / colormatrix=2 / chromaloc=0 / display-window=0 / cll=0,0 / min-luma=0 / max-luma=1023 / log2-max-poc-lsb=8 / vui-timing-info / vui-hrd-info / slices=1 / no-opt-qp-pps / no-opt-ref-list-length-pps / no-multi-pass-opt-rps / scenecut-bias=0.05 / hist-threshold=0.01 / no-opt-cu-delta-qp / no-aq-motion / no-hdr10 / no-hdr10-opt / no-dhdr10-opt / no-idr-recovery-sei / analysis-reuse-level=0 / analysis-save-reuse-level=0 / analysis-load-reuse-level=0 / scale-factor=0 / refine-intra=0 / refine-inter=0 / refine-mv=1 / refine-ctu-distortion=0 / no-limit-sao / ctu-info=0 / no-lowpass-dct / refine-analysis-type=0 / copy-pic=1 / max-ausize-factor=1.0 / no-dynamic-refine / no-single-sei / no-hevc-aq / no-svt / no-field / qp-adaptation-range=1.00 / no-scenecut-aware-qpconformance-window-offsets / right=0 / bottom=0
Language : English
Default : Yes
Forced : No
Color range : Limited

Audio
ID : 2
Format : E-AC-3 JOC
Format/Info : Enhanced AC-3 with Joint Object Coding
Commercial name : Dolby Digital Plus with Dolby Atmos
Codec ID : A_EAC3
Duration : 24 min 54 s
Bit rate mode : Constant
Bit rate : 768 kb/s
Channel(s) : 6 channels
Channel layout : L R C LFE Ls Rs
Sampling rate : 48.0 kHz
Frame rate : 31.250 FPS (1536 SPF)
Bit depth : 32 bits
Compression mode : Lossy
Stream size : 137 MiB (20%)
Language : English
Service kind : Complete Main
Default : Yes
Forced : No
Complexity index : 16
Number of dynamic objects : 15
Bed channel count : 1 channel
Bed channel configuration : LFE

Text #1
ID : 3
Format : UTF-8
Codec ID : S_TEXT/UTF8
Codec ID/Info : UTF-8 Plain Text
Duration : 23 min 56 s
Bit rate : 83 b/s
Count of elements : 280
Stream size : 14.6 KiB (0%)
Title : Arabic
Language : Arabic
Default : No
Forced : No

Text #2
ID : 4
Format : UTF-8
Codec ID : S_TEXT/UTF8
Codec ID/Info : UTF-8 Plain Text
Duration : 23 min 56 s
Bit rate : 44 b/s
Count of elements : 281
Stream size : 7.84 KiB (0%)
Title : Czech
Language : Czech
Default : No
Forced : No

Text #3
ID : 5
Format : UTF-8
Codec ID : S_TEXT/UTF8
Codec ID/Info : UTF-8 Plain Text
Duration : 22 min 50 s
Bit rate : 51 b/s
Count of elements : 213
Stream size : 8.58 KiB (0%)
Title : Danish
Language : Danish
Default : No
Forced : No

Text #4
ID : 6
Format : UTF-8
Codec ID : S_TEXT/UTF8
Codec ID/Info : UTF-8 Plain Text
Duration : 23 min 56 s
Bit rate : 49 b/s
Count of elements : 281
Stream size : 8.61 KiB (0%)
Title : German
Language : German
Default : No
Forced : No

Text #5
ID : 7
Format : UTF-8
Codec ID : S_TEXT/UTF8
Codec ID/Info : UTF-8 Plain Text
Duration : 23 min 56 s
Bit rate : 94 b/s
Count of elements : 286
Stream size : 16.5 KiB (0%)
Title : Greek
Language : Greek
Default : No
Forced : No

Text #6
ID : 8
Format : UTF-8
Codec ID : S_TEXT/UTF8
Codec ID/Info : UTF-8 Plain Text
Duration : 2 s 958 ms
Bit rate : 83 b/s
Count of elements : 1
Stream size : 31.0 Bytes (0%)
Title : English (Forced)
Language : English
Default : Yes
Forced : Yes

Text #7
ID : 9
Format : UTF-8
Codec ID : S_TEXT/UTF8
Codec ID/Info : UTF-8 Plain Text
Duration : 22 min 40 s
Bit rate : 62 b/s
Count of elements : 353
Stream size : 10.4 KiB (0%)
Title : English (SDH)
Language : English
Default : No
Forced : No

Text #8
ID : 10
Format : UTF-8
Codec ID : S_TEXT/UTF8
Codec ID/Info : UTF-8 Plain Text
Duration : 23 min 56 s
Bit rate : 51 b/s
Count of elements : 280
Stream size : 9.00 KiB (0%)
Title : Spanish
Language : Spanish
Default : No
Forced : No

Text #9
ID : 11
Format : UTF-8
Codec ID : S_TEXT/UTF8
Codec ID/Info : UTF-8 Plain Text
Duration : 23 min 56 s
Bit rate : 48 b/s
Count of elements : 280
Stream size : 8.56 KiB (0%)
Title : European Spanish
Language : Spanish
Default : No
Forced : No

Text #10
ID : 12
Format : UTF-8
Codec ID : S_TEXT/UTF8
Codec ID/Info : UTF-8 Plain Text
Duration : 23 min 56 s
Bit rate : 49 b/s
Count of elements : 214
Stream size : 8.63 KiB (0%)
Title : Finnish
Language : Finnish
Default : No
Forced : No

Text #11
ID : 13
Format : UTF-8
Codec ID : S_TEXT/UTF8
Codec ID/Info : UTF-8 Plain Text
Duration : 23 min 56 s
Bit rate : 53 b/s
Count of elements : 283
Stream size : 9.35 KiB (0%)
Title : French
Language : French
Default : No
Forced : No

Text #12
ID : 14
Format : UTF-8
Codec ID : S_TEXT/UTF8
Codec ID/Info : UTF-8 Plain Text
Duration : 23 min 53 s
Bit rate : 77 b/s
Count of elements : 281
Stream size : 13.6 KiB (0%)
Title : Hebrew
Language : Hebrew
Default : No
Forced : No

Text #13
ID : 15
Format : UTF-8
Codec ID : S_TEXT/UTF8
Codec ID/Info : UTF-8 Plain Text
Duration : 23 min 56 s
Bit rate : 49 b/s
Count of elements : 281
Stream size : 8.60 KiB (0%)
Title : Hungarian
Language : Hungarian
Default : No
Forced : No

Text #14
ID : 16
Format : UTF-8
Codec ID : S_TEXT/UTF8
Codec ID/Info : UTF-8 Plain Text
Duration : 23 min 56 s
Bit rate : 49 b/s
Count of elements : 284
Stream size : 8.63 KiB (0%)
Title : Indonesian
Language : Indonesian
Default : No
Forced : No

Text #15
ID : 17
Format : UTF-8
Codec ID : S_TEXT/UTF8
Codec ID/Info : UTF-8 Plain Text
Duration : 23 min 56 s
Bit rate : 52 b/s
Count of elements : 288
Stream size : 9.26 KiB (0%)
Title : Italian
Language : Italian
Default : No
Forced : No

Text #16
ID : 18
Format : UTF-8
Codec ID : S_TEXT/UTF8
Codec ID/Info : UTF-8 Plain Text
Duration : 23 min 56 s
Bit rate : 57 b/s
Count of elements : 261
Stream size : 10.0 KiB (0%)
Title : Japanese
Language : Japanese
Default : No
Forced : No

Text #17
ID : 19
Format : UTF-8
Codec ID : S_TEXT/UTF8
Codec ID/Info : UTF-8 Plain Text
Duration : 23 min 56 s
Bit rate : 59 b/s
Count of elements : 284
Stream size : 10.5 KiB (0%)
Title : Korean
Language : Korean
Default : No
Forced : No

Text #18
ID : 20
Format : UTF-8
Codec ID : S_TEXT/UTF8
Codec ID/Info : UTF-8 Plain Text
Duration : 23 min 56 s
Bit rate : 47 b/s
Count of elements : 213
Stream size : 8.41 KiB (0%)
Title : Norwegian
Language : Norwegian
Default : No
Forced : No

Text #19
ID : 21
Format : UTF-8
Codec ID : S_TEXT/UTF8
Codec ID/Info : UTF-8 Plain Text
Duration : 23 min 56 s
Bit rate : 49 b/s
Count of elements : 263
Stream size : 8.64 KiB (0%)
Title : Dutch
Language : Dutch
Default : No
Forced : No

Text #20
ID : 22
Format : UTF-8
Codec ID : S_TEXT/UTF8
Codec ID/Info : UTF-8 Plain Text
Duration : 23 min 56 s
Bit rate : 52 b/s
Count of elements : 281
Stream size : 9.20 KiB (0%)
Title : Polish
Language : Polish
Default : No
Forced : No

Text #21
ID : 23
Format : UTF-8
Codec ID : S_TEXT/UTF8
Codec ID/Info : UTF-8 Plain Text
Duration : 23 min 56 s
Bit rate : 49 b/s
Count of elements : 285
Stream size : 8.70 KiB (0%)
Title : Portuguese
Language : Portuguese
Default : No
Forced : No

Text #22
ID : 24
Format : UTF-8
Codec ID : S_TEXT/UTF8
Codec ID/Info : UTF-8 Plain Text
Duration : 23 min 56 s
Bit rate : 50 b/s
Count of elements : 286
Stream size : 8.81 KiB (0%)
Title : Brazilian Portuguese
Language : Portuguese
Default : No
Forced : No

Text #23
ID : 25
Format : UTF-8
Codec ID : S_TEXT/UTF8
Codec ID/Info : UTF-8 Plain Text
Duration : 23 min 56 s
Bit rate : 56 b/s
Count of elements : 281
Stream size : 9.97 KiB (0%)
Title : Romanian
Language : Romanian
Default : No
Forced : No

Text #24
ID : 26
Format : UTF-8
Codec ID : S_TEXT/UTF8
Codec ID/Info : UTF-8 Plain Text
Duration : 23 min 56 s
Bit rate : 76 b/s
Count of elements : 282
Stream size : 13.4 KiB (0%)
Title : Russian
Language : Russian
Default : No
Forced : No

Text #25
ID : 27
Format : UTF-8
Codec ID : S_TEXT/UTF8
Codec ID/Info : UTF-8 Plain Text
Duration : 23 min 56 s
Bit rate : 50 b/s
Count of elements : 215
Stream size : 8.88 KiB (0%)
Title : Swedish
Language : Swedish
Default : No
Forced : No

Text #26
ID : 28
Format : UTF-8
Codec ID : S_TEXT/UTF8
Codec ID/Info : UTF-8 Plain Text
Duration : 23 min 56 s
Bit rate : 125 b/s
Count of elements : 281
Stream size : 22.0 KiB (0%)
Title : Thai
Language : Thai
Default : No
Forced : No

Text #27
ID : 29
Format : UTF-8
Codec ID : S_TEXT/UTF8
Codec ID/Info : UTF-8 Plain Text
Duration : 23 min 56 s
Bit rate : 49 b/s
Count of elements : 280
Stream size : 8.72 KiB (0%)
Title : Turkish
Language : Turkish
Default : No
Forced : No

Text #28
ID : 30
Format : UTF-8
Codec ID : S_TEXT/UTF8
Codec ID/Info : UTF-8 Plain Text
Duration : 23 min 56 s
Bit rate : 74 b/s
Count of elements : 284
Stream size : 13.0 KiB (0%)
Title : Vietnamese
Language : Vietnamese
Default : No
Forced : No

Text #29
ID : 31
Format : UTF-8
Codec ID : S_TEXT/UTF8
Codec ID/Info : UTF-8 Plain Text
Duration : 23 min 56 s
Bit rate : 49 b/s
Count of elements : 281
Stream size : 8.71 KiB (0%)
Title : Simplified Chinese
Language : Chinese
Default : No
Forced : No

Text #30
ID : 32
Format : UTF-8
Codec ID : S_TEXT/UTF8
Codec ID/Info : UTF-8 Plain Text
Duration : 23 min 56 s
Bit rate : 52 b/s
Count of elements : 281
Stream size : 9.14 KiB (0%)
Title : Traditional Chinese
Language : Chinese
Default : No
Forced : No

Source Media Information



Transformers.War.For.Cybertron.Trilogy.S01E01.PROPER.1080p.WEB.H264-METCON.mkv 1.36 GB
Transformers.War.for.Cybertron.Trilogy.S01E02.1080p.WEB.H264-GHOSTS.mkv 1.28 GB
Transformers.War.for.Cybertron.Trilogy.S01E03.1080p.WEB.H264-GHOSTS.mkv 1.29 GB
Transformers.War.for.Cybertron.Trilogy.S01E04.1080p.WEB.H264-GHOSTS.mkv 1.29 GB
Transformers.War.for.Cybertron.Trilogy.S01E05.1080p.WEB.H264-GHOSTS.mkv 1.31 GB
Transformers.War.for.Cybertron.Trilogy.S01E06.1080p.WEB.H264-GHOSTS.mkv 1.25 GB
7.78 GB

Files:

Transformers - War for Cybertron (2020) S01 (1080p NF Webrip x265 10bit EAC3 5.1 Atmos - Goki)[TAoE]
  • banner.jpg (56.1 KB)
  • fanart.jpg (455.2 KB)
  • poster.jpg (185.6 KB)
  • season01-banner.jpg (35.2 KB)
  • Transformers - War for Cybertron (2020) S01E01 (1080p NF Webrip x265 10bit EAC3 5.1 Atmos - Goki)[TAoE].mkv (673.4 MB)
  • Transformers - War for Cybertron (2020) S01E01 (1080p NF Webrip x265 10bit EAC3 5.1 Atmos - Goki)[TAoE].nfo (3.8 KB)
  • Transformers - War for Cybertron (2020) S01E02 (1080p NF Webrip x265 10bit EAC3 5.1 Atmos - Goki)[TAoE].mkv (641.6 MB)
  • Transformers - War for Cybertron (2020) S01E02 (1080p NF Webrip x265 10bit EAC3 5.1 Atmos - Goki)[TAoE].nfo (3.8 KB)
  • Transformers - War for Cybertron (2020) S01E03 (1080p NF Webrip x265 10bit EAC3 5.1 Atmos - Goki)[TAoE].mkv (658.7 MB)
  • Transformers - War for Cybertron (2020) S01E03 (1080p NF Webrip x265 10bit EAC3 5.1 Atmos - Goki)[TAoE].nfo (3.8 KB)
  • Transformers - War for Cybertron (2020) S01E04 (1080p NF Webrip x265 10bit EAC3 5.1 Atmos - Goki)[TAoE].mkv (663.1 MB)
  • Transformers - War for Cybertron (2020) S01E04 (1080p NF Webrip x265 10bit EAC3 5.1 Atmos - Goki)[TAoE].nfo (3.8 KB)
  • Transformers - War for Cybertron (2020) S01E05 (1080p NF Webrip x265 10bit EAC3 5.1 Atmos - Goki)[TAoE].mkv (674.9 MB)
  • Transformers - War for Cybertron (2020) S01E05 (1080p NF Webrip x265 10bit EAC3 5.1 Atmos - Goki)[TAoE].nfo (3.8 KB)
  • Transformers - War for Cybertron (2020) S01E06 (1080p NF Webrip x265 10bit EAC3 5.1 Atmos - Goki)[TAoE].mkv (638.5 MB)
  • Transformers - War for Cybertron (2020) S01E06 (1080p NF Webrip x265 10bit EAC3 5.1 Atmos - Goki)[TAoE].nfo (3.8 KB)
  • tvshow.nfo (4.6 KB)

Comments

Code:

  • udp://tracker.coppersurfer.tk:6969/announce
  • udp://tracker.internetwarriors.net:1337/announce
  • http://tracker.opentrackr.org:1337/announce
  • udp://denis.stalker.upeer.me:6969/announce
  • udp://tracker.internetwarriors.net:1337
  • udp://9.rarbg.me:2720/announce
  • udp://explodie.org:6969/announce
  • udp://tracker.cyberia.is:6969/announce
  • udp://thetracker.org/announce
  • udp://open.demonii.si:1337/announce