Red Dwarf (1988) S10 (1080p BDRip x265 10bit DTS-HD MA 5.1 - WEM)...

  • Category TV
  • Type HEVC/x265
  • Language English
  • Total size 11.1 GB
  • Uploaded By Goki
  • Downloads 96
  • Last checked 5 days ago
  • Date uploaded 1 week ago
  • Seeders 5
  • Leechers 7

Infohash : 4C0C1A2AEFF126719F327CC7C0E714DF82A7E6D8



Hello everyone,
We are TAoE, a small team of passionate encoders who love encoding. We try our best to provide you with high quality releases.

Requests for movies and shows are welcome.
We have a form for encode requests which can be found here
Encode requests form
submit your request and it will be added to our encoding request list
You can view our encoding request list here
Encode requests list


When or if we encode it will depend on if we can obtain a good source to encode with and
if one of the TAoE encoders chooses to encode it. Unfortunately we are not able to encode everything,
new members are welcome as that helps us encode more content!

If you would like to join TAoE submit your request here!
TAoE member applications form



Red Dwarf (1988) IMDB















Media Information


General
Unique ID : 222620628253507799286916340148152348044 (0xA77B2C6532EC70E4388B9D557A24AD8C)
Complete name : Red Dwarf (1988) S10E01 - Trojan (1080p BDRip x265 10bit DTS-HD MA 5.1 - WEM)[TAoE].mkv
Format : Matroska
Format version : Version 4
File size : 1.62 GiB
Duration : 29 min 48 s
Overall bit rate mode : Variable
Overall bit rate : 7 782 kb/s
Writing application : Lavf58.29.100
Writing library : Lavf58.29.100
ErrorDetectionType : Per level 1

Video
ID : 1
Format : HEVC
Format/Info : High Efficiency Video Coding
Format profile : Main [email protected]@Main
Codec ID : V_MPEGH/ISO/HEVC
Duration : 29 min 48 s
Bit rate : 4 757 kb/s
Width : 1 920 pixels
Height : 1 080 pixels
Display aspect ratio : 16:9
Frame rate mode : Constant
Frame rate : 25.000 FPS
Color space : YUV
Chroma subsampling : 4:2:0
Bit depth : 10 bits
Bits/(Pixel*Frame) : 0.092
Stream size : 1 014 MiB (61%)
Title : Encoded by WEM for TAoE using Shinguru V1.9
Writing library : x265 3.2+35-acc5d16999e2:[Windows][GCC 9.2.1][64 bit] 10bit
Encoding settings : cpuid=1111039 / frame-threads=4 / numa-pools=24 / wpp / no-pmode / no-pme / no-psnr / no-ssim / log-level=2 / input-csp=1 / input-res=1920x1080 / interlace=0 / total-frames=0 / level-idc=0 / high-tier=1 / uhd-bd=0 / ref=4 / no-allow-non-conformance / no-repeat-headers / annexb / no-aud / no-hrd / info / hash=0 / no-temporal-layers / open-gop / min-keyint=25 / keyint=250 / gop-lookahead=0 / bframes=8 / b-adapt=2 / b-pyramid / bframe-bias=0 / rc-lookahead=80 / lookahead-slices=4 / scenecut=40 / hist-scenecut=0 / radl=0 / no-splice / no-intra-refresh / ctu=64 / min-cu-size=8 / no-rect / no-amp / max-tu-size=32 / tu-inter-depth=1 / tu-intra-depth=1 / limit-tu=0 / rdoq-level=2 / dynamic-rd=0.00 / no-ssim-rd / signhide / no-tskip / nr-intra=0 / nr-inter=0 / no-constrained-intra / no-strong-intra-smoothing / max-merge=3 / limit-refs=3 / limit-modes / me=3 / subme=5 / merange=57 / temporal-mvp / no-frame-dup / no-hme / weightp / no-weightb / no-analyze-src-pics / deblock=0:0 / sao / no-sao-non-deblock / rd=4 / selective-sao=4 / no-early-skip / rskip / no-fast-intra / no-tskip-fast / no-cu-lossless / no-b-intra / no-splitrd-skip / rdpenalty=0 / psy-rd=1.30 / psy-rdoq=2.00 / no-rd-refine / no-lossless / cbqpoffs=0 / crqpoffs=0 / rc=crf / crf=19.0 / qcomp=0.60 / qpstep=4 / stats-write=0 / stats-read=0 / ipratio=1.40 / pbratio=1.30 / aq-mode=4 / aq-strength=1.10 / cutree / zone-count=0 / no-strict-cbr / qg-size=32 / no-rc-grain / qpmax=69 / qpmin=0 / no-const-vbv / sar=1 / overscan=0 / videoformat=5 / range=0 / colorprim=2 / transfer=2 / colormatrix=2 / chromaloc=0 / display-window=0 / cll=0,0 / min-luma=0 / max-luma=1023 / log2-max-poc-lsb=8 / vui-timing-info / vui-hrd-info / slices=1 / no-opt-qp-pps / no-opt-ref-list-length-pps / no-multi-pass-opt-rps / scenecut-bias=0.05 / hist-threshold=0.01 / no-opt-cu-delta-qp / no-aq-motion / no-hdr10 / no-hdr10-opt / no-dhdr10-opt / no-idr-recovery-sei / analysis-reuse-level=0 / analysis-save-reuse-level=0 / analysis-load-reuse-level=0 / scale-factor=0 / refine-intra=0 / refine-inter=0 / refine-mv=1 / refine-ctu-distortion=0 / no-limit-sao / ctu-info=0 / no-lowpass-dct / refine-analysis-type=0 / copy-pic=1 / max-ausize-factor=1.0 / no-dynamic-refine / no-single-sei / no-hevc-aq / no-svt / no-field / qp-adaptation-range=1.00 / no-scenecut-aware-qpconformance-window-offsets / right=0 / bottom=0
Default : Yes
Forced : No
Color range : Limited

Audio
ID : 2
Format : DTS XLL
Format/Info : Digital Theater Systems
Commercial name : DTS-HD Master Audio
Codec ID : A_DTS
Duration : 29 min 47 s
Bit rate mode : Variable
Bit rate : 2 947 kb/s
Channel(s) : 6 channels
Channel layout : C L R Ls Rs LFE
Sampling rate : 48.0 kHz
Frame rate : 93.750 FPS (512 SPF)
Bit depth : 24 bits
Compression mode : Lossless
Stream size : 628 MiB (38%)
Language : English
Default : Yes
Forced : No

Text
ID : 3
Format : PGS
Codec ID : S_HDMV/PGS
Codec ID/Info : Picture based subtitle format used on BDs/HD-DVDs
Duration : 29 min 8 s
Bit rate : 72.2 kb/s
Count of elements : 1084
Stream size : 15.0 MiB (1%)
Title : English (SDH)
Language : English
Default : No
Forced : No

Menu
00:00:00.000 : :Intro
00:00:37.880 : :Stupid but True
00:04:15.600 : :Stirmaster
00:05:47.560 : :Trojan
00:10:37.760 : :Moose Question
00:16:14.360 : :Captain Rimmer
00:23:41.520 : :Confession
00:27:39.600 : :Platinum Star of Fortitude
00:28:56.840 : :Credits


Source Information


General
Unique ID : 330501496531156633263736738710589459598 (0xF8A445DBAFFE7EC16FB1D6F9F652CC8E)
Complete name : Red.Dwarf.S10E01.Trojan.1080p.DTS-HD.MA.5.1.AVC.REMUX-FraMeSToR.mkv
Format : Matroska
Format version : Version 4
File size : 6.65 GiB
Duration : 29 min 48 s
Overall bit rate mode : Variable
Overall bit rate : 31.9 Mb/s
Encoded date : UTC 2019-08-19 15:28:23
Writing application : mkvmerge v35.0.0 ('All The Love In The World') 64-bit
Writing library : libebml v1.3.9 + libmatroska v1.5.2

Video
ID : 1
Format : AVC
Format/Info : Advanced Video Codec
Format profile : [email protected]
Format settings : CABAC / 4 Ref Frames
Format settings, CABAC : Yes
Format settings, Reference frames : 4 frames
Codec ID : V_MPEG4/ISO/AVC
Duration : 29 min 48 s
Bit rate mode : Variable
Bit rate : 28.9 Mb/s
Maximum bit rate : 39.5 Mb/s
Width : 1 920 pixels
Height : 1 080 pixels
Display aspect ratio : 16:9
Frame rate mode : Constant
Frame rate : 25.000 FPS
Color space : YUV
Chroma subsampling : 4:2:0
Bit depth : 8 bits
Scan type : MBAFF
Scan type, store method : Interleaved fields
Scan order : Top Field First
Bits/(Pixel*Frame) : 0.558
Stream size : 6.02 GiB (91%)
Default : Yes
Forced : No

Audio
ID : 2
Format : DTS XLL
Format/Info : Digital Theater Systems
Commercial name : DTS-HD Master Audio
Codec ID : A_DTS
Duration : 29 min 48 s
Bit rate mode : Variable
Bit rate : 2 947 kb/s
Channel(s) : 6 channels
Channel layout : C L R Ls Rs LFE
Sampling rate : 48.0 kHz
Frame rate : 93.750 FPS (512 SPF)
Bit depth : 24 bits
Compression mode : Lossless
Stream size : 628 MiB (9%)
Language : English
Default : Yes
Forced : No

Text
ID : 3
Format : PGS
Codec ID : S_HDMV/PGS
Codec ID/Info : Picture based subtitle format used on BDs/HD-DVDs
Duration : 29 min 8 s
Bit rate : 72.2 kb/s
Count of elements : 1084
Stream size : 15.0 MiB (0%)
Title : English (SDH)
Language : English
Default : No
Forced : No

Menu
00:00:00.000 : en:Intro
00:00:37.880 : en:Stupid but True
00:04:15.600 : en:Stirmaster
00:05:47.560 : en:Trojan
00:10:37.760 : en:Moose Question
00:16:14.360 : en:Captain Rimmer
00:23:41.520 : en:Confession
00:27:39.600 : en:Platinum Star of Fortitude
00:28:56.840 : en:Credits

Files:

Red Dwarf (1988) S10 (1080p BDRip x265 10bit DTS-HD MA 5.1 - WEM)[TAoE]
  • Red Dwarf (1988) S10E03 - Lemons (1080p BDRip x265 10bit DTS-HD MA 5.1 - WEM)[TAoE].mkv (2.0 GB)
  • Red Dwarf (1988) S10E02 - Father and Sun (1080p BDRip x265 10bit DTS-HD MA 5.1 - WEM)[TAoE].mkv (1.9 GB)
  • Red Dwarf (1988) S10E01 - Trojan (1080p BDRip x265 10bit DTS-HD MA 5.1 - WEM)[TAoE].mkv (1.6 GB)
  • Red Dwarf (1988) S10E04 - Entangled (1080p BDRip x265 10bit DTS-HD MA 5.1 - WEM)[TAoE].mkv (1.8 GB)
  • Red Dwarf (1988) S10E05 - Dear Dave (1080p BDRip x265 10bit DTS-HD MA 5.1 - WEM)[TAoE].mkv (1.9 GB)
  • Red Dwarf (1988) S10E06 - The Beginning (1080p BDRip x265 10bit DTS-HD MA 5.1 - WEM)[TAoE].mkv (1.9 GB)

There are currently no comments. Feel free to leave one :)

Code:

  • udp://tracker.coppersurfer.tk:6969/announce
  • udp://tracker.internetwarriors.net:1337/announce
  • http://tracker.opentrackr.org:1337/announce
  • udp://denis.stalker.upeer.me:6969/announce
  • udp://tracker.internetwarriors.net:1337
  • udp://9.rarbg.me:2720/announce
  • udp://explodie.org:6969/announce
  • udp://tracker.cyberia.is:6969/announce
  • udp://thetracker.org/announce
  • udp://open.demonii.si:1337/announce