Best.in.Sex.2020.AVN.Awards.2020.WEB.h264.With.Sample.LLG

  • Category TV
  • Type SD
  • Language English
  • Total size 894.6 MB
  • Uploaded By LifeLongg
  • Downloads 28899
  • Last checked 2 weeks ago
  • Date uploaded 1 month ago
  • Seeders 165
  • Leechers 48

Infohash : 39476A79E24AFAC22BF933614101D6E486578D0E

Quote:




******************************Thumbnail:**********************




******************************Screenshots:********************

screenshot 1

screenshot 2

screenshot 3

screenshot 4

screenshot 5

screenshot 6

screenshot 7

screenshot 8

screenshot 9

screenshot 0


******************************************************

18+.Best.in.Sex.2020.AVN.Awards.2020.WEB.h264.With.Sample.LLG.mp4
Format : MPEG-4
Format profile : Base Media
Codec ID : isom (isom/iso2/avc1/mp41)
File size : 869 MiB
Duration : 1 h 12 min
Overall bit rate mode : Variable
Overall bit rate : 1 685 kb/s
Writing application : Lavf57.83.100

Video
ID : 1
Format : AVC
Format/Info : Advanced Video Codec
Format profile : [email protected]
Format settings : CABAC / 1 Ref Frames
Format settings, CABAC : Yes
Format settings, Reference frames : 1 frame
Codec ID : avc1
Codec ID/Info : Advanced Video Coding
Duration : 1 h 12 min
Bit rate mode : Variable
Bit rate : 1 490 kb/s
Maximum bit rate : 4 500 kb/s
Width : 960 pixels
Height : 540 pixels
Display aspect ratio : 16:9
Frame rate mode : Constant
Frame rate : 23.976 (23976/1000) FPS
Color space : YUV
Chroma subsampling : 4:2:0
Bit depth : 8 bits
Scan type : Progressive
Bits/(Pixel*Frame) : 0.120
Stream size : 768 MiB (88%)
Language : English
Codec configuration box : avcC

Audio
ID : 2
Format : AC-3
Format/Info : Audio Coding 3
Commercial name : Dolby Digital
Codec ID : ac-3
Duration : 1 h 12 min
Bit rate mode : Constant
Bit rate : 192 kb/s
Channel(s) : 2 channels
Channel layout : L R
Sampling rate : 48.0 kHz
Frame rate : 31.250 FPS (1536 SPF)
Compression mode : Lossy
Stream size : 99.0 MiB (11%)
Language : English
Service kind : Complete Main
Default : Yes
Alternate group : 1





********************************************************



Files:

18+.Best.in.Sex.2020.AVN.Awards.2020.WEB.h264.With.Sample.LLG
  • Poster.jpg (12.5 KB)
  • SAMPLE.ts (6.7 MB)
  • Sample 2.ts (19.2 MB)
  • 18+.Best.in.Sex.2020.AVN.Awards.2020.WEB.h264.With.Sample.LLG.mp4 (868.8 MB)

Comments

Code:

  • udp://tracker.openbittorrent.com:80/announce
  • udp://tracker.opentrackr.org:1337/announce
  • UDP://TRACKER.LEECHERS-PARADISE.ORG:6969/ANNOUNCE