Raised.by.Wolves.2020.S01E03.Virtual.Faith.1080p.HMAX.WEBRip.DD5....

  • Category TV
  • Type HD
  • Language English
  • Total size 2.9 GB
  • Uploaded By prudence25
  • Downloads 18945
  • Last checked 6 days ago
  • Date uploaded 2 weeks ago
  • Seeders 1894
  • Leechers 277

Infohash : 8D152CBBAE22A8DFEC3E5133A89717155FBCF1BB

Code:

Video
ID : 1
Format : AVC
Format/Info : Advanced Video Codec
Format profile : [email protected]
Format settings : CABAC / 4 Ref Frames
Format settings, CABAC : Yes
Format settings, Reference frames : 4 frames
Codec ID : V_MPEG4/ISO/AVC
Duration : 48 min 43 s
Bit rate mode : Variable
Bit rate : 8 228 kb/s
Maximum bit rate : 12.4 Mb/s
Width : 1 920 pixels
Height : 1 080 pixels
Display aspect ratio : 16:9
Frame rate mode : Constant
Frame rate : 23.976 (24000/1001) FPS
Color space : YUV
Chroma subsampling : 4:2:0
Bit depth : 8 bits
Scan type : Progressive
Bits/(Pixel*Frame) : 0.166
Stream size : 2.80 GiB (96%)
Default : Yes
Forced : No
Color range : Limited
Color primaries : BT.709
Transfer characteristics : BT.709
Matrix coefficients : BT.709

Audio
ID : 2
Format : AC-3
Format/Info : Audio Coding 3
Commercial name : Dolby Digital
Codec ID : A_AC3
Duration : 48 min 43 s
Bit rate mode : Constant
Bit rate : 384 kb/s
Channel(s) : 6 channels
Channel layout : L R C LFE Ls Rs
Sampling rate : 48.0 kHz
Frame rate : 31.250 FPS (1536 SPF)
Compression mode : Lossy
Stream size : 134 MiB (4%)
Language : English
Service kind : Complete Main
Default : Yes
Forced : No

Text
ID : 3
Format : UTF-8
Codec ID : S_TEXT/UTF8
Codec ID/Info : UTF-8 Plain Text
Duration : 48 min 35 s
Bit rate : 58 b/s
Count of elements : 908
Stream size : 20.7 KiB (0%)
Title : SDH
Language : English
Default : No
Forced : No

Files:

Raised.by.Wolves.2020.S01E03.Virtual.Faith.1080p.HMAX.WEBRip.DD5.1.x264-NTG[rarbg]
  • RARBG.txt (0.0 KB)
  • RARBG_DO_NOT_MIRROR.exe (0.1 KB)
  • Raised.by.Wolves.2020.S01E03.Virtual.Faith.1080p.HMAX.WEB-DL.DD5.1.H.264-NTG.mkv (2.9 GB)

There are currently no comments. Feel free to leave one :)

Code:

  • http://tracker.trackerfix.com:80/announce
  • udp://9.rarbg.me:2840/announce
  • udp://9.rarbg.to:2970/announce