The Ugly Truth (2009) 1080p 10bit Bluray x265 HEVC [HDTV DD 2.0 H...

  • Category Movies
  • Type Dubs/Dual Audio
  • Language Hindi
  • Total size 3.3 GB
  • Uploaded By McuDudeS
  • Downloads 351
  • Last checked 58 minutes ago
  • Date uploaded 1 week ago
  • Seeders 6
  • Leechers 1

The Ugly Truth

ComedyRomance

A romantically challenged morning show producer is reluctantly embroiled in a series of outrageous tests by her chauvinistic correspondent to prove his theories on relationships and help her find love. His clever ploys, however, lead to an unexpected result.

Infohash : D378FC0A95E9454338720FE59C0A41BF50DF1865



The battle of the sexes is on...




The Ugly Truth (2009) 1080p 10bit Bluray x265 HEVC [HDTV DD 2.0 Hindi + DD 5.1 English] MSubs ~ TombDoc


Code:

Format                                   : Matroska
Format version                           : Version 4
File size                                : 3.30 GiB
Duration                                 : 1 h 35 min
Overall bit rate                         : 4 925 kb/s

Video
ID                                       : 1
Format                                   : HEVC
Format/Info                              : High Efficiency Video Coding
Format profile                           : Main [email protected]@Main
Codec ID                                 : V_MPEGH/ISO/HEVC
Duration                                 : 1 h 35 min
Bit rate                                 : 3 988 kb/s
Width                                    : 1 920 pixels
Height                                   : 800 pixels
Display aspect ratio                     : 2.40:1
Frame rate mode                          : Constant
Frame rate                               : 23.976 (24000/1001) FPS
Color space                              : YUV
Chroma subsampling                       : 4:2:0
Bit depth                                : 10 bits
Bits/(Pixel*Frame)                       : 0.108
Stream size                              : 2.67 GiB (81%)
Writing library                          : x265 3.4+6-g73f96ff39:[Windows][GCC 11.0.0][64 bit] 10bit
Encoding settings                        : cpuid=1111039 / frame-threads=4 / numa-pools=24 / wpp / no-pmode / no-pme / no-psnr / no-ssim / log-level=2 / input-csp=1 / input-res=1920x800 / interlace=0 / total-frames=138048 / level-idc=0 / high-tier=1 / uhd-bd=0 / ref=5 / no-allow-non-conformance / no-repeat-headers / annexb / no-aud / no-hrd / info / hash=0 / no-temporal-layers / open-gop / min-keyint=23 / keyint=250 / gop-lookahead=0 / bframes=8 / b-adapt=2 / b-pyramid / bframe-bias=0 / rc-lookahead=100 / lookahead-slices=4 / scenecut=40 / hist-scenecut=0 / radl=0 / no-splice / no-intra-refresh / ctu=64 / min-cu-size=8 / rect / amp / max-tu-size=32 / tu-inter-depth=1 / tu-intra-depth=1 / limit-tu=0 / rdoq-level=2 / dynamic-rd=0.00 / ssim-rd / signhide / no-tskip / nr-intra=0 / nr-inter=0 / no-constrained-intra / strong-intra-smoothing / max-merge=5 / limit-refs=3 / limit-modes / me=3 / subme=5 / merange=57 / temporal-mvp / no-frame-dup / no-hme / weightp / no-weightb / no-analyze-src-pics / deblock=0:0 / sao / no-sao-non-deblock / rd=4 / selective-sao=4 / no-early-skip / no-rskip / no-fast-intra / no-tskip-fast / no-cu-lossless / no-b-intra / no-splitrd-skip / rdpenalty=0 / psy-rd=0.00 / psy-rdoq=2.00 / no-rd-refine / no-lossless / cbqpoffs=0 / crqpoffs=0 / rc=abr / bitrate=4000 / qcomp=0.60 / qpstep=4 / stats-write=0 / stats-read=2 / cplxblur=20.0 / qblur=0.5 / ipratio=1.40 / pbratio=1.30 / aq-mode=4 / aq-strength=1.00 / cutree / zone-count=0 / no-strict-cbr / qg-size=32 / rc-grain / qpmax=69 / qpmin=0 / no-const-vbv / sar=0 / overscan=0 / videoformat=5 / range=0 / colorprim=2 / transfer=2 / colormatrix=2 / chromaloc=0 / display-window=0 / cll=0,0 / min-luma=0 / max-luma=1023 / log2-max-poc-lsb=8 / vui-timing-info / vui-hrd-info / slices=1 / no-opt-qp-pps / no-opt-ref-list-length-pps / no-multi-pass-opt-rps / scenecut-bias=0.05 / hist-threshold=0.01 / no-opt-cu-delta-qp / aq-motion / no-hdr10 / no-hdr10-opt / no-dhdr10-opt / no-idr-recovery-sei / analysis-reuse-level=0 / analysis-save-reuse-level=0 / analysis-load-reuse-level=0 / scale-factor=0 / refine-intra=0 / refine-inter=0 / refine-mv=1 / refine-ctu-distortion=0 / no-limit-sao / ctu-info=0 / no-lowpass-dct / refine-analysis-type=0 / copy-pic=1 / max-ausize-factor=1.0 / no-dynamic-refine / no-single-sei / hevc-aq / no-svt / no-field / qp-adaptation-range=1.00 / no-scenecut-aware-qpconformance-window-offsets / right=0 / bottom=0 / decoder-max-rate=0
Default                                  : Yes
Forced                                   : No

Audio #1
ID                                       : 2
Format                                   : AC-3
Format/Info                              : Audio Coding 3
Commercial name                          : Dolby Digital
Codec ID                                 : A_AC3
Duration                                 : 1 h 35 min
Bit rate mode                            : Constant
Bit rate                                 : 224 kb/s
Channel(s)                               : 2 channels
Channel layout                           : L R
Sampling rate                            : 48.0 kHz
Frame rate                               : 31.250 FPS (1536 SPF)
Compression mode                         : Lossy
Stream size                              : 154 MiB (5%)
Title                                    : Org HDTV DD 2.0 224Kbps ~ TombDoc
Language                                 : Hindi
Service kind                             : Complete Main
Default                                  : Yes
Forced                                   : Yes

Audio #2
ID                                       : 3
Format                                   : E-AC-3
Format/Info                              : Enhanced AC-3
Commercial name                          : Dolby Digital Plus
Codec ID                                 : A_EAC3
Duration                                 : 1 h 35 min
Bit rate mode                            : Constant
Bit rate                                 : 640 kb/s
Channel(s)                               : 6 channels
Channel layout                           : L R C LFE Ls Rs
Sampling rate                            : 48.0 kHz
Frame rate                               : 31.250 FPS (1536 SPF)
Compression mode                         : Lossy
Stream size                              : 439 MiB (13%)
Title                                    : DD+ 5.1 English
Language                                 : English
Service kind                             : Complete Main
Default                                  : No
Forced                                   : No

Text #1
ID                                       : 4
Format                                   : PGS
Muxing mode                              : zlib
Codec ID                                 : S_HDMV/PGS
Codec ID/Info                            : Picture based subtitle format used on BDs/HD-DVDs
Duration                                 : 1 h 30 min
Bit rate                                 : 47.2 kb/s
Count of elements                        : 3046
Stream size                              : 30.5 MiB (1%)
Title                                    : Hindi BD-PGS
Language                                 : Hindi
Default                                  : Yes
Forced                                   : Yes

Text #2
ID                                       : 5
Format                                   : PGS
Muxing mode                              : zlib
Codec ID                                 : S_HDMV/PGS
Codec ID/Info                            : Picture based subtitle format used on BDs/HD-DVDs
Duration                                 : 1 h 30 min
Bit rate                                 : 51.2 kb/s
Count of elements                        : 3024
Stream size                              : 33.1 MiB (1%)
Title                                    : Eng BD-PGS
Language                                 : English
Default                                  : No
Forced                                   : No

Text #3
ID                                       : 6
Format                                   : PGS
Muxing mode                              : zlib
Codec ID                                 : S_HDMV/PGS
Codec ID/Info                            : Picture based subtitle format used on BDs/HD-DVDs
Duration                                 : 1 h 31 min
Bit rate                                 : 37.9 kb/s
Count of elements                        : 3273
Stream size                              : 24.8 MiB (1%)
Title                                    : Eng BD-PGS-SDH
Language                                 : English
Default                                  : No
Forced                                   : No

Text #4
ID                                       : 7
Format                                   : PGS
Muxing mode                              : zlib
Codec ID                                 : S_HDMV/PGS
Codec ID/Info                            : Picture based subtitle format used on BDs/HD-DVDs
Duration                                 : 1 h 31 min
Bit rate                                 : 36.7 kb/s
Count of elements                        : 1970
Stream size                              : 24.0 MiB (1%)
Title                                    : Commentary
Language                                 : English
Default                                  : No
Forced                                   : No

Menu
00:00:00.000                             : en:Chapter 01
00:06:24.593                             : en:Chapter 02
00:12:32.210                             : en:Chapter 03
00:15:56.330                             : en:Chapter 04
00:20:12.420                             : en:Chapter 05
00:26:04.646                             : en:Chapter 06
00:32:02.712                             : en:Chapter 07
00:36:48.790                             : en:Chapter 08
00:41:46.129                             : en:Chapter 09
00:49:25.004                             : en:Chapter 10
00:56:43.358                             : en:Chapter 11
01:02:33.375                             : en:Chapter 12
01:08:01.661                             : en:Chapter 13
01:12:52.660                             : en:Chapter 14
01:18:49.683                             : en:Chapter 15
01:23:04.188                             : en:Chapter 16



Code:

Source: The Ugly Truth 2009 1080p CEE Blu-ray AVC DTS-HD MA 5 1-TTG
TV-DL Source Saon - Hindi Audio Synced By ReaperZa {Thanks}


EnjoYy...



Files:

The Ugly Truth (2009) 1080p 10bit Bluray x265 HEVC [HDTV DD 2.0 Hindi + DD 5.1 English] MSubs ~ TombDoc
  • T.U.T.jpg (489.6 KB)
  • The Ugly Truth (2009) 1080p 10bit Bluray x265 HEVC [HDTV DD 2.0 Hindi + DD 5.1 English] MSubs ~ TombDoc.mkv (3.3 GB)

Comments

Code:

  • udp://tracker.coppersurfer.tk:6969/announce
  • udp://tracker.opentrackr.org:1337/announce
  • udp://p4p.arenabg.ch:1337/announce
  • udp://9.rarbg.to:2710/announce
  • udp://9.rarbg.me:2710/announce
  • udp://exodus.desync.com:6969/announce
  • udp://tracker.cyberia.is:6969/announce
  • udp://tracker.tiny-vps.com:6969/announce
  • udp://retracker.lanta-net.ru:2710/announce
  • udp://open.stealth.si:80/announce
  • udp://tracker3.itzmx.com:6961/announce
  • udp://tracker.torrent.eu.org:451/announce
  • http://tracker1.itzmx.com:8080/announce
  • udp://tracker.moeking.me:6969/announce
  • udp://ipv4.tracker.harry.lu:80/announce
  • udp://bt2.archive.org:6969/announce
  • udp://bt1.archive.org:6969/announce
  • udp://valakas.rollo.dnsabr.com:2710/announce
  • udp://tracker-udp.gbitt.info:80/announce
  • udp://retracker.akado-ural.ru:80/announce