The Office (UK) Seasons 1 and 2 Complete Box Set [Eng Subs][Netfl...

  • Category TV
  • Type HEVC/x265
  • Language English
  • Total size 2.7 GB
  • Uploaded By ShieldBearer
  • Downloads 137
  • Last checked 1 hour ago
  • Date uploaded 4 days ago
  • Seeders 4
  • Leechers 2

Infohash : 2E5762540464964480011408F757BDB43A918D2C

The Office (UK) Seasons 1 and 2 Complete Box Set [Eng Subs][NetflixRip][NVEnc H265][AAC 2Ch]



Encoded in H265 NVEnc (HEVC - High Efficiency Video Coding) .MP4 from personal NetflixRips.

This is the best version you can get from Netflix at 540p.
Now with a better file structure and correctly named episodes and Eng Subs.

This is a hilarious show (absolute classic) that inspired the US version of The Office which you can find HERE.

Selective download so you can choose what you want.


Please Seed, it's what we need



Summary:
Wiki:
The Office is a British television mockumentary sitcom first broadcast in the UK on BBC Two on 9 July 2001. Created, written, and directed by Ricky Gervais and Stephen Merchant, the programme follows the day-to-day lives of office employees in the Slough branch of the fictional Wernham Hogg paper company. Gervais also stars in the series, playing the central character David Brent.

Two six-episode series were made, along with a pair of 58-minute Christmas specials. When it was first shown on BBC Two, ratings were relatively low, but it has since become one of the most successful of all British comedy exports. As well as being shown internationally on BBC Worldwide, channels such as BBC Prime, BBC America, and BBC Canada, the series has been sold to broadcasters in over 80 countries, including ABC1 in Australia, The Comedy Network in Canada, TVNZ in New Zealand, and the pan-Asian satellite channel STAR World, based in Hong Kong. The show was first shown in the United States on BBC America in 2003, and later on Cartoon Network's late night programming block Adult Swim from 2009 to 2012.

The show centres on themes of social clumsiness, the trivialities of human behaviour, self-importance and conceit, frustration, desperation and fame. The protagonist David Brent was influenced by Basil Fawlty (played by John Cleese) from the acclaimed BBC sitcom Fawlty Towers. The success of The Office led to a number of localised adaptations (based upon its basic story and themes) being produced for the television markets of other nations, resulting in an international Office franchise.

myseries.tv: A mockumentary about life in a mid-sized suboffice paper merchants in a bleak British industrial town, where manager David Brent thinks he's the coolest, funniest, and most popular boss ever. He isn't. That doesn't stop him from embarrassing himself in front of the cameras on a regular basis, whether from his political sermonizing, his stand-up 'comedy', or his incredibly unique dancing. Meanwhile, long-suffering Tim longs after Dawn the engaged receptionist and keeps himself sane by playing childish practical jokes on his insufferable, army-obsessed deskmate Gareth. Will the Slough office be closed? Will the BBC give David a game show? Will Tim and Dawn end up with each other? And more importantly, will Gareth realize what a hopeless prat he is?


Screens:












Media Info:

Code:

General
Complete name               : D:\Videos\The Office (UK) Seasons 1 and 2 Complete Box Set [Eng Subs][NetflixRip][NVEnc H265][AAC 2Ch]\The Office (UK) Season 2\[S02.E08] The Office (U.K.) - Christmas Special - Part 2.mp4
Format                      : MPEG-4
Format profile              : Base Media / Version 2
Codec ID                    : mp42 (isom/iso2/mp41)
File size                   : 324 MiB
Duration                    : 51 min 54 s
Overall bit rate mode       : Variable
Overall bit rate            : 873 kb/s
Encoded date                : UTC 2020-09-15 05:21:07
Tagged date                 : UTC 2020-09-15 05:21:07
Writing application         : HandBrake 1.3.3 2020061300

Video
ID                          : 1
Format                      : HEVC
Format/Info                 : High Efficiency Video Coding
Format profile              : [email protected]@Main
Codec ID                    : hvc1
Codec ID/Info               : High Efficiency Video Coding
Duration                    : 51 min 53 s
Bit rate                    : 674 kb/s
Width                       : 960 pixels
Height                      : 538 pixels
Display aspect ratio        : 16:9
Frame rate mode             : Constant
Frame rate                  : 25.000 FPS
Color space                 : YUV
Chroma subsampling          : 4:2:0
Bit depth                   : 8 bits
Bits/(Pixel*Frame)          : 0.052
Stream size                 : 250 MiB (77%)
Encoded date                : UTC 2020-09-15 05:21:07
Tagged date                 : UTC 2020-09-15 05:21:07
Color range                 : Limited
Color primaries             : BT.601 PAL
Transfer characteristics    : BT.709
Matrix coefficients         : BT.601
Codec configuration box     : hvcC

Audio
ID                          : 2
Format                      : AAC LC
Format/Info                 : Advanced Audio Codec Low Complexity
Codec ID                    : mp4a-40-2
Duration                    : 51 min 54 s
Bit rate mode               : Constant
Bit rate                    : 192 kb/s
Channel(s)                  : 2 channels
Channel layout              : L R
Sampling rate               : 44.1 kHz
Frame rate                  : 43.066 FPS (1024 SPF)
Compression mode            : Lossy
Stream size                 : 71.5 MiB (22%)
Title                       : Stereo
Language                    : English
Default                     : Yes
Alternate group             : 1
Encoded date                : UTC 2020-09-15 05:21:07
Tagged date                 : UTC 2020-09-15 05:21:07

Text
ID                          : 3
Format                      : Timed Text
Muxing mode                 : sbtl
Codec ID                    : tx3g
Duration                    : 51 min 38 s
Bit rate mode               : Variable
Bit rate                    : 166 b/s
Stream size                 : 62.8 KiB (0%)
Title                       : The Office (UK).English
Language                    : English
Default                     : Yes
Forced                      : No
Alternate group             : 3
Encoded date                : UTC 2020-09-15 05:21:07
Tagged date                 : UTC 2020-09-15 05:21:07


Files:

The Office (UK) Seasons 1 and 2 Complete Box Set [Eng Subs][NetflixRip][NVEnc H265][AAC 2Ch]
  • Torrent Info and How to Play These Videos.txt (0.7 KB)
  • The Office (UK) Season 1
    • [S01.E01] The Office (U.K.) - Downsize.mp4 (160.7 MB)
    • [S01.E02] The Office (U.K.) - Work Experience.mp4 (158.5 MB)
    • [S01.E03] The Office (U.K.) - The Quiz.mp4 (162.1 MB)
    • [S01.E04] The Office (U.K.) - Training.mp4 (153.0 MB)
    • [S01.E05] The Office (U.K.) - New Girl.mp4 (172.4 MB)
    • [S01.E06] The Office (U.K.) - Judgement.mp4 (172.3 MB)
    The Office (UK) Season 2
    • [S02.E01] The Office (U.K.) - Merger.mp4 (196.3 MB)
    • [S02.E02] The Office (U.K.) - Appraisals.mp4 (191.9 MB)
    • [S02.E03] The Office (U.K.) - Party.mp4 (198.6 MB)
    • [S02.E04] The Office (U.K.) - Motivation.mp4 (183.5 MB)
    • [S02.E05] The Office (U.K.) - Charity.mp4 (195.7 MB)
    • [S02.E06] The Office (U.K.) - Interview.mp4 (177.2 MB)
    • [S02.E07] The Office (U.K.) - Christmas Special - Part 1.mp4 (283.0 MB)
    • [S02.E08] The Office (U.K.) - Christmas Special - Part 2.mp4 (324.2 MB)

Comments

Code:

  • UDP://TRACKER.LEECHERS-PARADISE.ORG:6969/ANNOUNCE
  • UDP://TRACKER.COPPERSURFER.TK:6969/ANNOUNCE
  • UDP://TRACKER.OPENTRACKR.ORG:1337/ANNOUNCE
  • UDP://TRACKER.ZER0DAY.TO:1337/ANNOUNCE
  • UDP://EDDIE4.NL:6969/ANNOUNCE
  • udp://tracker.coppersurfer.tk:6969/announce
  • udp://tracker.opentrackr.org:1337/announce
  • udp://tracker.leechers-paradise.org:6969/announce
  • udp://p4p.arenabg.ch:1337/announce
  • http://p4p.arenabg.com:1337/announce
  • udp://9.rarbg.me:2710/announce
  • udp://9.rarbg.to:2710/announce
  • udp://tracker.moeking.me:6969/announce
  • udp://tracker.cyberia.is:6969/announce
  • udp://exodus.desync.com:6969/announce
  • udp://tracker.torrent.eu.org:451/announce
  • http://tracker1.itzmx.com:8080/announce
  • udp://tracker.tiny-vps.com:6969/announce
  • udp://tracker.moeking.me:6969/announce
  • udp://explodie.org:6969/announce
  • udp://bt1.archive.org:6969/announce
  • udp://bt2.archive.org:6969/announce