Mutant X (2001) S02 REPACK (1080p BDRip x265 10bit EAC3 2.0 - Spe...

  • Category TV
  • Type HEVC/x265
  • Language English
  • Total size 30.8 GB
  • Uploaded By Goki
  • Downloads 72
  • Last checked 19 minutes ago
  • Date uploaded 2 days ago
  • Seeders 14
  • Leechers 13

Infohash : B3400056E071488A7252976E3D21E6A763503B80








Mutant X (2001) IMDB

Note: Episodes 16 and 20 had problems this release should fix them though.










Encode Media Information



General
Unique ID : 255385467464743538901387254462238638691 (0xC02173B0B663E154C0A29763399F4263)
Complete name : Mutant X (2001) S02E01 Past as Prologue (1080p BDRip x265 10bit EAC3 2.0 - Species180) [TAoE].mkv
Format : Matroska
Format version : Version 4
File size : 1.32 GiB
Duration : 43 min 0 s
Overall bit rate : 4 400 kb/s
Writing application : Lavf58.29.100
Writing library : Lavf58.29.100
ErrorDetectionType : Per level 1

Video
ID : 1
Format : HEVC
Format/Info : High Efficiency Video Coding
Format profile : Main [email protected]@Main
Codec ID : V_MPEGH/ISO/HEVC
Duration : 43 min 0 s
Bit rate : 4 205 kb/s
Width : 1 920 pixels
Height : 1 080 pixels
Display aspect ratio : 16:9
Frame rate mode : Constant
Frame rate : 29.970 (30000/1001) FPS
Color space : YUV
Chroma subsampling : 4:2:0
Bit depth : 10 bits
Bits/(Pixel*Frame) : 0.068
Stream size : 1.26 GiB (96%)
Writing library : x265 3.4+6-g73f96ff39:[Windows][GCC 11.0.0][64 bit] 10bit
Encoding settings : cpuid=1111039 / frame-threads=4 / numa-pools=16 / wpp / no-pmode / no-pme / no-psnr / no-ssim / log-level=2 / input-csp=1 / input-res=1920x1080 / interlace=0 / total-frames=77332 / level-idc=0 / high-tier=1 / uhd-bd=0 / ref=4 / no-allow-non-conformance / no-repeat-headers / annexb / no-aud / no-hrd / info / hash=0 / no-temporal-layers / open-gop / min-keyint=25 / keyint=250 / gop-lookahead=0 / bframes=8 / b-adapt=2 / b-pyramid / bframe-bias=0 / rc-lookahead=80 / lookahead-slices=4 / scenecut=40 / hist-scenecut=0 / radl=0 / no-splice / no-intra-refresh / ctu=64 / min-cu-size=8 / no-rect / no-amp / max-tu-size=32 / tu-inter-depth=1 / tu-intra-depth=1 / limit-tu=0 / rdoq-level=2 / dynamic-rd=0.00 / no-ssim-rd / signhide / no-tskip / nr-intra=0 / nr-inter=0 / no-constrained-intra / no-strong-intra-smoothing / max-merge=3 / limit-refs=3 / limit-modes / me=3 / subme=5 / merange=57 / temporal-mvp / no-frame-dup / no-hme / weightp / no-weightb / no-analyze-src-pics / deblock=0:0 / sao / no-sao-non-deblock / rd=4 / selective-sao=4 / no-early-skip / rskip / no-fast-intra / no-tskip-fast / no-cu-lossless / no-b-intra / no-splitrd-skip / rdpenalty=0 / psy-rd=1.30 / psy-rdoq=2.00 / no-rd-refine / no-lossless / cbqpoffs=0 / crqpoffs=0 / rc=crf / crf=20.0 / qcomp=0.60 / qpstep=4 / stats-write=0 / stats-read=0 / ipratio=1.40 / pbratio=1.30 / aq-mode=4 / aq-strength=1.10 / cutree / zone-count=0 / no-strict-cbr / qg-size=32 / no-rc-grain / qpmax=69 / qpmin=0 / no-const-vbv / sar=0 / overscan=0 / videoformat=5 / range=0 / colorprim=1 / transfer=1 / colormatrix=1 / chromaloc=0 / display-window=0 / cll=0,0 / min-luma=0 / max-luma=1023 / log2-max-poc-lsb=8 / vui-timing-info / vui-hrd-info / slices=1 / no-opt-qp-pps / no-opt-ref-list-length-pps / no-multi-pass-opt-rps / scenecut-bias=0.05 / hist-threshold=0.01 / no-opt-cu-delta-qp / no-aq-motion / no-hdr10 / no-hdr10-opt / no-dhdr10-opt / no-idr-recovery-sei / analysis-reuse-level=0 / analysis-save-reuse-level=0 / analysis-load-reuse-level=0 / scale-factor=0 / refine-intra=0 / refine-inter=0 / refine-mv=1 / refine-ctu-distortion=0 / no-limit-sao / ctu-info=0 / no-lowpass-dct / refine-analysis-type=0 / copy-pic=1 / max-ausize-factor=1.0 / no-dynamic-refine / no-single-sei / no-hevc-aq / no-svt / no-field / qp-adaptation-range=1.00 / no-scenecut-aware-qpconformance-window-offsets / right=0 / bottom=0 / decoder-max-rate=0
Default : Yes
Forced : No
Color range : Limited
Color primaries : BT.709
Transfer characteristics : BT.709
Matrix coefficients : BT.709

Audio
ID : 2
Format : E-AC-3
Format/Info : Enhanced AC-3
Commercial name : Dolby Digital Plus
Codec ID : A_EAC3
Duration : 43 min 0 s
Bit rate mode : Constant
Bit rate : 192 kb/s
Channel(s) : 2 channels
Channel layout : L R
Sampling rate : 48.0 kHz
Frame rate : 31.250 FPS (1536 SPF)
Bit depth : 32 bits
Compression mode : Lossy
Delay relative to video : 4 ms
Stream size : 39.1 MiB (3%)
Writing library : Lavc58.54.100 eac3
Language : English
Service kind : Complete Main
Default : No
Forced : No

Source Media Information



General
Unique ID : 175707030899904029748499793792857191706 (0x842FF17730B86077A7382B2A8C82B51A)
Complete name : MUTANT-X-S2D1.Title2.mkv
Format : Matroska
Format version : Version 2
File size : 4.45 GiB
Duration : 43 min 0 s
Overall bit rate mode : Variable
Overall bit rate : 14.8 Mb/s
Movie name : MUTANT-X-S2D1.Title2
Encoded date : UTC 2020-09-03 07:47:38
Writing application : DVDFab 11.1.0.5
Writing library : libebml v1.3.4 + libmatroska v1.4.5

Video
ID : 1
Format : AVC
Format/Info : Advanced Video Codec
Format profile : [email protected]
Format settings : CABAC / 3 Ref Frames
Format settings, CABAC : Yes
Format settings, Reference frames : 3 frames
Codec ID : V_MPEG4/ISO/AVC
Duration : 43 min 0 s
Bit rate mode : Variable
Bit rate : 12.5 Mb/s
Maximum bit rate : 18.9 Mb/s
Width : 1 920 pixels
Height : 1 080 pixels
Display aspect ratio : 16:9
Frame rate mode : Variable
Frame rate : 59.940 (60000/1001) FPS
Original frame rate : 29.970 (30000/1001) FPS
Standard : NTSC
Color space : YUV
Chroma subsampling : 4:2:0
Bit depth : 8 bits
Scan type : Interlaced
Scan type, store method : Separated fields
Scan order : Top Field First
Bits/(Pixel*Frame) : 0.101
Stream size : 3.75 GiB (84%)
Default : Yes
Forced : No
Color range : Limited
Color primaries : BT.709
Transfer characteristics : BT.709
Matrix coefficients : BT.709

Audio
ID : 2
Format : PCM
Format settings : Little / Signed
Codec ID : A_PCM/INT/LIT
Duration : 43 min 0 s
Bit rate mode : Constant
Bit rate : 2 304 kb/s
Channel(s) : 2 channels
Sampling rate : 48.0 kHz
Frame rate : 32.000 FPS (1500 SPF)
Bit depth : 24 bits
Stream size : 709 MiB (16%)
Language : English
Default : Yes
Forced : No

Files:

Mutant X (2001) S02 REPACK (1080p BDRip x265 10bit EAC3 2.0 - Species180)[TAoE]
  • Mutant X (2001) S02E01 Past as Prologue (1080p BDRip x265 10bit EAC3 2.0 - Species180) [TAoE].mkv (1.3 GB)
  • Mutant X (2001) S02E02 Power Play (1080p BDRip x265 10bit EAC3 2.0 - Species180) [TAoE].mkv (1.4 GB)
  • Mutant X (2001) S02E03 Time Squared (1080p BDRip x265 10bit EAC3 2.0 - Species180) [TAoE].mkv (1.4 GB)
  • Mutant X (2001) S02E04 Whose Woods These Are (1080p BDRip x265 10bit EAC3 2.0 - Species180) [TAoE].mkv (1.9 GB)
  • Mutant X (2001) S02E05 The Future Revealed (1080p BDRip x265 10bit EAC3 2.0 - Species180) [TAoE].mkv (1.4 GB)
  • Mutant X (2001) S02E06 No Man Left Behind (1080p BDRip x265 10bit EAC3 2.0 - Species180) [TAoE].mkv (1.5 GB)
  • Mutant X (2001) S02E07 Crossroads of the Soul (1080p BDRip x265 10bit EAC3 2.0 - Species180) [TAoE].mkv (1.6 GB)
  • Mutant X (2001) S02E08 Sign from Above (1080p BDRip x265 10bit EAC3 2.0 - Species180) [TAoE].mkv (1.2 GB)
  • Mutant X (2001) S02E09 Body and Soul (1080p BDRip x265 10bit EAC3 2.0 - Species180) [TAoE].mkv (1.5 GB)
  • Mutant X (2001) S02E10 Understudy (1080p BDRip x265 10bit EAC3 2.0 - Species180) [TAoE].mkv (1.3 GB)
  • Mutant X (2001) S02E11 The Grift (1080p BDRip x265 10bit EAC3 2.0 - Species180) [TAoE].mkv (1.5 GB)
  • Mutant X (2001) S02E12 At Destiny's End (1080p BDRip x265 10bit EAC3 2.0 - Species180) [TAoE].mkv (1.5 GB)
  • Mutant X (2001) S02E13 Within These Walls (1080p BDRip x265 10bit EAC3 2.0 - Species180) [TAoE].mkv (1.4 GB)
  • Mutant X (2001) S02E14 Hard Time (1080p BDRip x265 10bit EAC3 2.0 - Species180) [TAoE].mkv (1.4 GB)
  • Mutant X (2001) S02E15 Under the Cloak of War (1080p BDRip x265 10bit EAC3 2.0 - Species180) [TAoE].mkv (1.3 GB)
  • Mutant X (2001) S02E16 Once Around REPACK (1080p BDRip x265 10bit EAC3 2.0 - Species180) [TAoE].mkv (1.4 GB)
  • Mutant X (2001) S02E17 Final Judgment (1080p BDRip x265 10bit EAC3 2.0 - Species180) [TAoE].mkv (1.3 GB)
  • Mutant X (2001) S02E18 Inferno (1080p BDRip x265 10bit EAC3 2.0 - Species180) [TAoE].mkv (1.2 GB)
  • Mutant X (2001) S02E19 One Step Closer (1080p BDRip x265 10bit EAC3 2.0 - Species180) [TAoE].mkv (1.4 GB)
  • Mutant X (2001) S02E20 Reality Check REPACK (1080p BDRip x265 10bit EAC3 2.0 - Species180) [TAoE].mkv (1.2 GB)
  • Mutant X (2001) S02E21 Reawakening (1080p BDRip x265 10bit EAC3 2.0 - Species180) [TAoE].mkv (1.3 GB)
  • Mutant X (2001) S02E22 Lest He Become (1080p BDRip x265 10bit EAC3 2.0 - Species180) [TAoE].mkv (1.4 GB)

Comments

Code:

  • udp://tracker.coppersurfer.tk:6969/announce
  • udp://tracker.internetwarriors.net:1337/announce
  • http://tracker.opentrackr.org:1337/announce
  • udp://denis.stalker.upeer.me:6969/announce
  • udp://tracker.internetwarriors.net:1337
  • udp://9.rarbg.me:2720/announce
  • udp://explodie.org:6969/announce
  • udp://tracker.cyberia.is:6969/announce
  • udp://thetracker.org/announce
  • udp://open.demonii.si:1337/announce