Derailed (2005) UNRATED (1080p BDRip x265 10bit DTS-HD MA 5.1 - x...

  • Category Movies
  • Type HEVC/x265
  • Language English
  • Total size 13.0 GB
  • Uploaded By Goki
  • Downloads 96
  • Last checked 39 minutes ago
  • Date uploaded 1 week ago
  • Seeders 6
  • Leechers 2

Derailed

Thriller

When two married business executives having an affair are blackmailed by a violent criminal, they are forced to turn the tables on him to save their families.

Infohash : 59794CF1CB00181053E2620C543A0D9AD125AA2B






Derailed (2005) IMDB










Media Information



General
Unique ID : 123786753178624903496570410792671407831 (0x5D207622AB7564AE31ABDF9C995A6ED7)
Complete name : Derailed (2005) UNRATED (1080p BDRip x265 10bit DTS-HD MA 5.1 - xtrem3x) [TAoE].mkv
Format : Matroska
Format version : Version 4
File size : 13.0 GiB
Duration : 1 h 52 min
Overall bit rate mode : Variable
Overall bit rate : 16.5 Mb/s
Writing application : Lavf58.29.100
Writing library : Lavf58.29.100
ErrorDetectionType : Per level 1

Video
ID : 1
Format : HEVC
Format/Info : High Efficiency Video Coding
Format profile : Main [email protected]@Main
Codec ID : V_MPEGH/ISO/HEVC
Duration : 1 h 52 min
Bit rate : 12.7 Mb/s
Width : 1 920 pixels
Height : 816 pixels
Display aspect ratio : 2.35:1
Frame rate mode : Constant
Frame rate : 23.976 (24000/1001) FPS
Color space : YUV
Chroma subsampling : 4:2:0
Bit depth : 10 bits
Bits/(Pixel*Frame) : 0.337
Stream size : 9.95 GiB (77%)
Title : Encoded by xtrem3x for TAoE using Shinguru V2.1
Writing library : x265 3.3+29-1e3dbf09ee4f:[Windows][GCC 9.3.1][64 bit] 10bit
Encoding settings : cpuid=1111039 / frame-threads=4 / numa-pools=16 / wpp / no-pmode / no-pme / no-psnr / no-ssim / log-level=2 / input-csp=1 / input-res=1920x816 / interlace=0 / total-frames=0 / level-idc=0 / high-tier=1 / uhd-bd=0 / ref=4 / no-allow-non-conformance / no-repeat-headers / annexb / no-aud / no-hrd / info / hash=0 / no-temporal-layers / open-gop / min-keyint=23 / keyint=250 / gop-lookahead=0 / bframes=8 / b-adapt=2 / b-pyramid / bframe-bias=0 / rc-lookahead=80 / lookahead-slices=4 / scenecut=40 / hist-scenecut=0 / radl=0 / no-splice / no-intra-refresh / ctu=64 / min-cu-size=8 / no-rect / no-amp / max-tu-size=32 / tu-inter-depth=1 / tu-intra-depth=1 / limit-tu=0 / rdoq-level=2 / dynamic-rd=0.00 / no-ssim-rd / signhide / no-tskip / nr-intra=0 / nr-inter=0 / no-constrained-intra / no-strong-intra-smoothing / max-merge=3 / limit-refs=3 / limit-modes / me=3 / subme=5 / merange=57 / temporal-mvp / no-frame-dup / no-hme / weightp / no-weightb / no-analyze-src-pics / deblock=0:0 / sao / no-sao-non-deblock / rd=4 / selective-sao=4 / no-early-skip / rskip / no-fast-intra / no-tskip-fast / no-cu-lossless / no-b-intra / no-splitrd-skip / rdpenalty=0 / psy-rd=1.30 / psy-rdoq=2.00 / no-rd-refine / no-lossless / cbqpoffs=0 / crqpoffs=0 / rc=crf / crf=19.0 / qcomp=0.60 / qpstep=4 / stats-write=0 / stats-read=0 / ipratio=1.40 / pbratio=1.30 / aq-mode=4 / aq-strength=1.10 / cutree / zone-count=0 / no-strict-cbr / qg-size=32 / no-rc-grain / qpmax=69 / qpmin=0 / no-const-vbv / sar=1 / overscan=0 / videoformat=5 / range=0 / colorprim=2 / transfer=2 / colormatrix=2 / chromaloc=0 / display-window=0 / cll=0,0 / min-luma=0 / max-luma=1023 / log2-max-poc-lsb=8 / vui-timing-info / vui-hrd-info / slices=1 / no-opt-qp-pps / no-opt-ref-list-length-pps / no-multi-pass-opt-rps / scenecut-bias=0.05 / hist-threshold=0.01 / no-opt-cu-delta-qp / no-aq-motion / no-hdr10 / no-hdr10-opt / no-dhdr10-opt / no-idr-recovery-sei / analysis-reuse-level=0 / analysis-save-reuse-level=0 / analysis-load-reuse-level=0 / scale-factor=0 / refine-intra=0 / refine-inter=0 / refine-mv=1 / refine-ctu-distortion=0 / no-limit-sao / ctu-info=0 / no-lowpass-dct / refine-analysis-type=0 / copy-pic=1 / max-ausize-factor=1.0 / no-dynamic-refine / no-single-sei / no-hevc-aq / no-svt / no-field / qp-adaptation-range=1.00 / no-scenecut-aware-qpconformance-window-offsets / right=0 / bottom=0 / decoder-max-rate=0
Language : English
Default : Yes
Forced : No
Color range : Limited

Audio
ID : 2
Format : DTS XLL
Format/Info : Digital Theater Systems
Commercial name : DTS-HD Master Audio
Codec ID : A_DTS
Duration : 1 h 52 min
Bit rate mode : Variable
Bit rate : 3 771 kb/s
Channel(s) : 6 channels
Channel layout : C L R Ls Rs LFE
Sampling rate : 48.0 kHz
Frame rate : 93.750 FPS (512 SPF)
Bit depth : 24 bits
Compression mode : Lossless
Stream size : 2.96 GiB (23%)
Language : English
Default : No
Forced : No

Text #1
ID : 3
Format : PGS
Codec ID : S_HDMV/PGS
Codec ID/Info : Picture based subtitle format used on BDs/HD-DVDs
Duration : 1 h 45 min
Bit rate : 42.9 kb/s
Count of elements : 3000
Stream size : 32.3 MiB (0%)
Language : English
Default : Yes
Forced : No

Text #2
ID : 4
Format : PGS
Codec ID : S_HDMV/PGS
Codec ID/Info : Picture based subtitle format used on BDs/HD-DVDs
Duration : 1 h 44 min
Bit rate : 35.0 kb/s
Count of elements : 2586
Stream size : 26.2 MiB (0%)
Language : Spanish
Default : No
Forced : No

Menu
00:00:00.000 : :Chapter 1
00:05:32.415 : :Chapter 2
00:08:35.056 : :Chapter 3
00:09:07.005 : :Chapter 4
00:11:52.670 : :Chapter 5
00:12:32.877 : :Chapter 6
00:14:27.784 : :Chapter 7
00:16:17.643 : :Chapter 8
00:19:46.894 : :Chapter 9
00:22:16.293 : :Chapter 10
00:23:00.796 : :Chapter 11
00:24:46.735 : :Chapter 12
00:27:02.830 : :Chapter 13
00:30:53.727 : :Chapter 14
00:38:10.121 : :Chapter 15
00:43:20.598 : :Chapter 16
00:48:41.377 : :Chapter 17
00:49:54.867 : :Chapter 18
00:51:20.452 : :Chapter 19
00:58:06.525 : :Chapter 20
00:59:32.027 : :Chapter 21
01:10:18.798 : :Chapter 22
01:17:07.790 : :Chapter 23
01:21:40.813 : :Chapter 24
01:25:09.062 : :Chapter 25
01:32:26.124 : :Chapter 26
01:36:31.536 : :Chapter 27
01:46:19.665 : :Chapter 28


Source Information



General
Unique ID : 201342828627678018135949407055069996979 (0x977937E0D0D9FAC3B319606E43AE67B3)
Complete name : Derailed.2005.UNRATED.BluRay.1080p.DTSHD-MA.h264.Remux-decibeL.mkv
Format : Matroska
Format version : Version 2
File size : 19.1 GiB
Duration : 1 h 52 min
Overall bit rate mode : Variable
Overall bit rate : 24.3 Mb/s
Encoded date : UTC 2012-06-15 13:49:03
Writing application : mkvmerge v5.6.0 ('Kenya Kane') built on May 27 2012 16:44:04
Writing library : libebml v1.2.3 + libmatroska v1.3.0

Video
ID : 1
Format : AVC
Format/Info : Advanced Video Codec
Format profile : [email protected]
Format settings : CABAC / 4 Ref Frames
Format settings, CABAC : Yes
Format settings, Reference frames : 4 frames
Muxing mode : Container [email protected]
Codec ID : V_MPEG4/ISO/AVC
Duration : 1 h 52 min
Bit rate mode : Variable
Maximum bit rate : 36.0 Mb/s
Width : 1 920 pixels
Height : 1 080 pixels
Display aspect ratio : 16:9
Frame rate mode : Constant
Frame rate : 23.976 (24000/1001) FPS
Color space : YUV
Chroma subsampling : 4:2:0
Bit depth : 8 bits
Scan type : Progressive
Title : MPEG-4 AVC Video / 20513 kbps / 1080p / 23.976 fps / 16:9 / High Profile 4.1
Language : English
Default : Yes
Forced : No
Color range : Limited
Color primaries : BT.709
Transfer characteristics : BT.709
Matrix coefficients : BT.709

Audio
ID : 2
Format : DTS XLL
Format/Info : Digital Theater Systems
Commercial name : DTS-HD Master Audio
Codec ID : A_DTS
Duration : 1 h 52 min
Bit rate mode : Variable
Channel(s) : 6 channels
Channel layout : C L R Ls Rs LFE
Sampling rate : 48.0 kHz
Frame rate : 93.750 FPS (512 SPF)
Bit depth : 24 bits
Compression mode : Lossless
Language : English
Default : Yes
Forced : No

Text #1
ID : 3
Format : PGS
Muxing mode : zlib
Codec ID : S_HDMV/PGS
Codec ID/Info : Picture based subtitle format used on BDs/HD-DVDs
Language : English
Default : Yes
Forced : No

Text #2
ID : 4
Format : PGS
Muxing mode : zlib
Codec ID : S_HDMV/PGS
Codec ID/Info : Picture based subtitle format used on BDs/HD-DVDs
Language : Spanish
Default : No
Forced : No

Menu
00:00:00.000 : en:Chapter 1
00:05:32.415 : en:Chapter 2
00:08:35.056 : en:Chapter 3
00:09:07.005 : en:Chapter 4
00:11:52.670 : en:Chapter 5
00:12:32.877 : en:Chapter 6
00:14:27.784 : en:Chapter 7
00:16:17.643 : en:Chapter 8
00:19:46.894 : en:Chapter 9
00:22:16.293 : en:Chapter 10
00:23:00.796 : en:Chapter 11
00:24:46.735 : en:Chapter 12
00:27:02.830 : en:Chapter 13
00:30:53.727 : en:Chapter 14
00:38:10.121 : en:Chapter 15
00:43:20.598 : en:Chapter 16
00:48:41.377 : en:Chapter 17
00:49:54.867 : en:Chapter 18
00:51:20.452 : en:Chapter 19
00:58:06.525 : en:Chapter 20
00:59:32.027 : en:Chapter 21
01:10:18.798 : en:Chapter 22
01:17:07.790 : en:Chapter 23
01:21:40.813 : en:Chapter 24
01:25:09.062 : en:Chapter 25
01:32:26.124 : en:Chapter 26
01:36:31.536 : en:Chapter 27
01:46:19.665 : en:Chapter 28

Files:

  • Derailed (2005) UNRATED (1080p BDRip x265 10bit DTS-HD MA 5.1 - xtrem3x) [TAoE].mkv (13.0 GB)

There are currently no comments. Feel free to leave one :)

Code:

  • udp://tracker.coppersurfer.tk:6969/announce
  • udp://tracker.internetwarriors.net:1337/announce
  • http://tracker.opentrackr.org:1337/announce
  • udp://denis.stalker.upeer.me:6969/announce
  • udp://tracker.internetwarriors.net:1337
  • udp://9.rarbg.me:2720/announce
  • udp://explodie.org:6969/announce
  • udp://tracker.cyberia.is:6969/announce
  • udp://thetracker.org/announce
  • udp://open.demonii.si:1337/announce