Logan Lucky 2017 1080p Blu-ray x264 Dual Audio [Hindi DD2.0 - Eng...

  • Category Movies
  • Type Dubs/Dual Audio
  • Language Hindi
  • Total size 4.8 GB
  • Uploaded By TheFighter
  • Downloads 998
  • Last checked 46 minutes ago
  • Date uploaded 6 days ago
  • Seeders 23
  • Leechers 11

Logan Lucky

ActionCrimeComedy

Trying to reverse a family curse, brothers Jimmy and Clyde Logan set out to execute an elaborate robbery during the legendary Coca-Cola 600 race at the Charlotte Motor Speedway.

Infohash : 56241DAC6957630C6C69DBE72F0378942815CA40



Logan Lucky 2017 1080p Blu-ray x264 Dual Audio [Hindi DD2.0 - English DD5.1] ESUB -Ranvijay - DUSIcTv

Thanks To Weapon-X For Hindi Audio



General
Format : Matroska
Format version : Version 4
File size : 4.81 GiB
Duration : 1 h 59 min
Overall bit rate : 5 783 kb/s
Movie name : Logan Lucky 2017 1080p Blu-ray x264 Dual Audio [Hindi DD2.0 - English DD5.1] ESUB -Ranvijay - DUSIcTv

Video
ID : 1
Format : AVC
Format/Info : Advanced Video Codec
Format profile : [email protected]
Format settings : CABAC / 5 Ref Frames
Format settings, CABAC : Yes
Format settings, Reference frames : 5 frames
Codec ID : V_MPEG4/ISO/AVC
Duration : 1 h 59 min
Bit rate : 5 000 kb/s
Width : 1 920 pixels
Height : 800 pixels
Display aspect ratio : 2.40:1
Frame rate mode : Constant
Frame rate : 23.976 (24000/1001) FPS
Color space : YUV
Chroma subsampling : 4:2:0
Bit depth : 8 bits
Scan type : Progressive
Bits/(Pixel*Frame) : 0.136
Stream size : 4.16 GiB (86%)
Title : ~Ranvijay~
Writing library : x264 core 157 r2969 d4099dd
Default : Yes
Forced : No
Color range : Limited
Color primaries : Generic film
Transfer characteristics : BT.709
Matrix coefficients : BT.709

Audio #1
ID : 2
Format : AC-3
Format/Info : Audio Coding 3
Commercial name : Dolby Digital
Codec ID : A_AC3
Duration : 1 h 59 min
Bit rate mode : Constant
Bit rate : 384 kb/s
Channel(s) : 2 channels
Channel layout : L R
Sampling rate : 48.0 kHz
Frame rate : 31.250 FPS (1536 SPF)
Compression mode : Lossy
Stream size : 327 MiB (7%)
Title : ~Ranvijay~
Language : Hindi
Service kind : Complete Main
Default : Yes
Forced : Yes

Audio #2
ID : 3
Format : AC-3
Format/Info : Audio Coding 3
Commercial name : Dolby Digital
Codec ID : A_AC3
Duration : 1 h 59 min
Bit rate mode : Constant
Bit rate : 384 kb/s
Channel(s) : 6 channels
Channel layout : L R C LFE Ls Rs
Sampling rate : 48.0 kHz
Frame rate : 31.250 FPS (1536 SPF)
Compression mode : Lossy
Stream size : 327 MiB (7%)
Title : ~Ranvijay~
Language : English
Service kind : Complete Main
Default : No
Forced : No

Text
ID : 4
Format : PGS
Muxing mode : zlib
Codec ID : S_HDMV/PGS
Codec ID/Info : Picture based subtitle format used on BDs/HD-DVDs
Duration : 1 h 57 min
Bit rate : 46.6 kb/s
Count of elements : 3499
Stream size : 39.3 MiB (1%)
Title : ~Ranvijay~
Language : English
Default : Yes
Forced : Yes

Menu
00:00:00.000 : en:00:00:00.000
00:05:41.800 : en:00:05:41.800
00:07:33.203 : en:00:07:33.203
00:10:40.932 : en:00:10:40.932
00:16:24.025 : en:00:16:24.025
00:21:23.282 : en:00:21:23.282
00:29:08.747 : en:00:29:08.747
00:36:03.703 : en:00:36:03.703
00:41:49.424 : en:00:41:49.424
00:47:11.078 : en:00:47:11.078
00:50:08.881 : en:00:50:08.881
00:54:40.527 : en:00:54:40.527
00:57:27.152 : en:00:57:27.152
00:59:16.470 : en:00:59:16.470
01:04:37.290 : en:01:04:37.290
01:07:27.877 : en:01:07:27.877
01:12:12.995 : en:01:12:12.995
01:17:50.249 : en:01:17:50.249
01:19:20.422 : en:01:19:20.422
01:24:02.913 : en:01:24:02.913
01:28:33.099 : en:01:28:33.099
01:32:41.514 : en:01:32:41.514
01:42:27.433 : en:01:42:27.433
01:46:07.653 : en:01:46:07.653
01:50:50.936 : en:01:50:50.936
01:54:55.263 : en:01:54:55.263












Files:

Logan Lucky 2017 1080p Blu-ray x264 Dual Audio [Hindi DD2.0 - English DD5.1] ESUB -Ranvijay - DUSIcTv
  • Logan Lucky 2017 1080p Blu-ray x264 Dual Audio [Hindi DD2.0 - English DD5.1] ESUB -Ranvijay - DUSIcTv.mkv (4.8 GB)
  • Encoded From WEBPUNDITS.url (0.1 KB)
  • Sample - Logan Lucky 2017 1080p Blu-ray x264 Dual Audio [Hindi DD2.0 - English DD5.1] ESUB -Ranvijay - DUSIcTv .mkv (26.7 MB)
  • SpecialRDP - Premium & Affordable Web Hosting Solution.url (0.0 KB)

Comments

Code:

  • udp://tracker.pirateparty.gr:6969/announce
  • udp://tracker.tiny-vps.com:6969/announce
  • udp://open.stealth.si:80/announce
  • udp://tracker.opentrackr.org:1337/announce
  • udp://tracker.internetwarriors.net:1337/announce
  • udp://9.rarbg.to:2800/announce
  • http://tracker.torrentyorg.pl:80/announce
  • udp://9.rarbg.me:2740/announce
  • udp://thetracker.org:80/announce
  • udp://tracker.coppersurfer.tk:6969/announce
  • https://tracker.fastdownload.xyz:443/announce
  • udp://torrentclub.tech:6969/announce
  • udp://open.demonii.si:1337/announce
  • http://vps02.net.orel.ru:80/announce
  • udp://ipv4.tracker.harry.lu:80/announce