Enola.Holmes.2020.1080p.NF.WEBRip.DDP5.1.Atmos.x264-CM

  • Category Movies
  • Type HD
  • Language English
  • Total size 5.3 GB
  • Uploaded By Dakshvv
  • Downloads 16342
  • Last checked 3 weeks ago
  • Date uploaded 1 month ago
  • Seeders 1748
  • Leechers 161

Enola Holmes

AdventureCrimeDramaMystery

While searching for her missing mother, intrepid teen Enola Holmes uses her sleuthing skills to outsmart big brother Sherlock and help a runaway lord.

Infohash : 1E35A06B345B458D1399840444E54111D86A09A8





Quote:

When Enola Holmes-Sherlock's teen sister-discovers her mother missing| she sets off to find her| becoming a super-sleuth in her own right as she outwits her
famous brother and unravels a dangerous conspiracy around a mysterious young Lord.







Code:



Video
ID : 1
Format : AVC
Format/Info : Advanced Video Codec
Format profile : [email protected]
Format settings : CABAC / 3 Ref Frames
Format settings, CABAC : Yes
Format settings, Reference frames : 3 frames
Codec ID : V_MPEG4/ISO/AVC
Duration : 2 h 3 min
Bit rate mode : Variable
Bit rate : 5 360 kb/s
Maximum bit rate : 8 040 kb/s
Width : 1 920 pixels
Height : 1 080 pixels
Display aspect ratio : 16:9
Frame rate mode : Constant
Frame rate : 24.000 FPS
Color space : YUV
Chroma subsampling : 4:2:0
Bit depth : 8 bits
Scan type : Progressive
Bits/(Pixel*Frame) : 0.108
Stream size : 4.60 GiB (87%)
Writing library : x264 core 148 r2721 6d200cf
Encoding settings : cabac=1 / ref=3 / deblock=1:0:0 / analyse=0x1:0x111 / me=umh / subme=10 / psy=1 / psy_rd=1.00:0.00 / mixed_ref=1 / me_range=24 / chroma_me=1 / trellis=2 / 8x8dct=0 / cqm=0 / deadzone=21,11 / fast_pskip=1 / chroma_qp_offset=-2 / threads=6 / lookahead_threads=1 / sliced_threads=0 / nr=0 / decimate=1 / interlaced=0 / bluray_compat=0 / stitchable=1 / constrained_intra=0 / bframes=2 / b_pyramid=0 / b_adapt=2 / b_bias=0 / direct=3 / weightb=1 / open_gop=0 / weightp=2 / keyint=250 / keyint_min=24 / scenecut=0 / intra_refresh=0 / rc_lookahead=48 / rc=2pass / mbtree=1 / bitrate=5360 / ratetol=1.0 / qcomp=0.50 / qpmin=6 / qpmax=51 / qpstep=4 / cplxblur=20.0 / qblur=0.5 / vbv_maxrate=8040 / vbv_bufsize=10720 / nal_hrd=vbr / filler=0 / ip_ratio=1.40 / aq=1:1.00
Default : Yes
Forced : No

Audio
ID : 2
Format : E-AC-3 JOC
Format/Info : Enhanced AC-3 with Joint Object Coding
Commercial name : Dolby Digital Plus with Dolby Atmos
Codec ID : A_EAC3
Duration : 2 h 3 min
Bit rate mode : Constant
Bit rate : 768 kb/s
Channel(s) : 6 channels
Channel layout : L R C LFE Ls Rs
Sampling rate : 48.0 kHz
Frame rate : 31.250 FPS (1536 SPF)
Compression mode : Lossy
Stream size : 681 MiB (13%)
Title : English
Language : English
Service kind : Complete Main
Default : No
Forced : No
Complexity index : 16
Number of dynamic objects : 15
Bed channel count : 1 channel
Bed channel configuration : LFE

Text #1
ID : 3
Format : UTF-8
Codec ID : S_TEXT/UTF8
Codec ID/Info : UTF-8 Plain Text
Duration : 2 h 1 min
Bit rate : 101 b/s
Count of elements : 1607
Stream size : 90.5 KiB (0%)
Title : Arabic
Language : Arabic
Default : No
Forced : No

Text #2
ID : 4
Format : UTF-8
Codec ID : S_TEXT/UTF8
Codec ID/Info : UTF-8 Plain Text
Duration : 2 h 1 min
Bit rate : 53 b/s
Count of elements : 1606
Stream size : 47.8 KiB (0%)
Title : Brazilian Portuguese
Language : Portuguese
Default : No
Forced : No

Text #3
ID : 5
Format : UTF-8
Codec ID : S_TEXT/UTF8
Codec ID/Info : UTF-8 Plain Text
Duration : 2 h 2 min
Bit rate : 49 b/s
Count of elements : 1539
Stream size : 44.1 KiB (0%)
Title : Czech
Language : Czech
Default : No
Forced : No

Text #4
ID : 6
Format : UTF-8
Codec ID : S_TEXT/UTF8
Codec ID/Info : UTF-8 Plain Text
Duration : 2 h 1 min
Bit rate : 50 b/s
Count of elements : 1515
Stream size : 45.1 KiB (0%)
Title : Danish
Language : Danish
Default : No
Forced : No

Text #5
ID : 7
Format : UTF-8
Codec ID : S_TEXT/UTF8
Codec ID/Info : UTF-8 Plain Text
Duration : 2 h 1 min
Bit rate : 49 b/s
Count of elements : 1569
Stream size : 43.8 KiB (0%)
Title : German
Language : German
Default : No
Forced : No

Text #6
ID : 8
Format : UTF-8
Codec ID : S_TEXT/UTF8
Codec ID/Info : UTF-8 Plain Text
Duration : 2 h 1 min
Bit rate : 84 b/s
Count of elements : 1598
Stream size : 75.7 KiB (0%)
Title : Greek
Language : Greek
Default : No
Forced : No

Text #7
ID : 9
Format : UTF-8
Codec ID : S_TEXT/UTF8
Codec ID/Info : UTF-8 Plain Text
Duration : 1 h 56 min
Bit rate : 69 b/s
Count of elements : 2067
Stream size : 59.4 KiB (0%)
Title : English [CC]
Language : English
Default : No
Forced : No

Text #8
ID : 10
Format : UTF-8
Codec ID : S_TEXT/UTF8
Codec ID/Info : UTF-8 Plain Text
Duration : 2 h 1 min
Bit rate : 48 b/s
Count of elements : 1511
Stream size : 43.6 KiB (0%)
Title : European Spanish
Language : Spanish
Default : No
Forced : No

Text #9
ID : 11
Format : UTF-8
Codec ID : S_TEXT/UTF8
Codec ID/Info : UTF-8 Plain Text
Duration : 2 h 1 min
Bit rate : 49 b/s
Count of elements : 1495
Stream size : 44.5 KiB (0%)
Title : Finnish
Language : Finnish
Default : No
Forced : No

Text #10
ID : 12
Format : UTF-8
Codec ID : S_TEXT/UTF8
Codec ID/Info : UTF-8 Plain Text
Duration : 2 h 1 min
Bit rate : 49 b/s
Count of elements : 1578
Stream size : 44.0 KiB (0%)
Title : French
Language : French
Default : No
Forced : No

Text #11
ID : 13
Format : UTF-8
Codec ID : S_TEXT/UTF8
Codec ID/Info : UTF-8 Plain Text
Duration : 1 h 56 min
Bit rate : 90 b/s
Count of elements : 1601
Stream size : 77.3 KiB (0%)
Title : Hebrew
Language : Hebrew
Default : No
Forced : No

Text #12
ID : 14
Format : UTF-8
Codec ID : S_TEXT/UTF8
Codec ID/Info : UTF-8 Plain Text
Duration : 2 h 1 min
Bit rate : 47 b/s
Count of elements : 1545
Stream size : 42.1 KiB (0%)
Title : Croatian
Language : Croatian
Default : No
Forced : No

Text #13
ID : 15
Format : UTF-8
Codec ID : S_TEXT/UTF8
Codec ID/Info : UTF-8 Plain Text
Duration : 2 h 1 min
Bit rate : 48 b/s
Count of elements : 1547
Stream size : 43.4 KiB (0%)
Title : Hungarian
Language : Hungarian
Default : No
Forced : No

Text #14
ID : 16
Format : UTF-8
Codec ID : S_TEXT/UTF8
Codec ID/Info : UTF-8 Plain Text
Duration : 2 h 1 min
Bit rate : 49 b/s
Count of elements : 1573
Stream size : 44.2 KiB (0%)
Title : Indonesian
Language : Indonesian
Default : No
Forced : No

Text #15
ID : 17
Format : UTF-8
Codec ID : S_TEXT/UTF8
Codec ID/Info : UTF-8 Plain Text
Duration : 2 h 1 min
Bit rate : 50 b/s
Count of elements : 1537
Stream size : 45.5 KiB (0%)
Title : Italian
Language : Italian
Default : No
Forced : No

Text #16
ID : 18
Format : UTF-8
Codec ID : S_TEXT/UTF8
Codec ID/Info : UTF-8 Plain Text
Duration : 2 h 1 min
Bit rate : 52 b/s
Count of elements : 1572
Stream size : 46.6 KiB (0%)
Title : Japanese
Language : Japanese
Default : No
Forced : No

Text #17
ID : 19
Format : UTF-8
Codec ID : S_TEXT/UTF8
Codec ID/Info : UTF-8 Plain Text
Duration : 2 h 1 min
Bit rate : 78 b/s
Count of elements : 1639
Stream size : 70.3 KiB (0%)
Title : Korean
Language : Korean
Default : No
Forced : No

Text #18
ID : 20
Format : UTF-8
Codec ID : S_TEXT/UTF8
Codec ID/Info : UTF-8 Plain Text
Duration : 2 h 1 min
Bit rate : 50 b/s
Count of elements : 1512
Stream size : 45.5 KiB (0%)
Title : Malay
Language : Malay
Default : No
Forced : No

Text #19
ID : 21
Format : UTF-8
Codec ID : S_TEXT/UTF8
Codec ID/Info : UTF-8 Plain Text
Duration : 2 h 1 min
Bit rate : 46 b/s
Count of elements : 1480
Stream size : 41.2 KiB (0%)
Title : Dutch
Language : Dutch
Default : No
Forced : No

Text #20
ID : 22
Format : UTF-8
Codec ID : S_TEXT/UTF8
Codec ID/Info : UTF-8 Plain Text
Duration : 2 h 1 min
Bit rate : 47 b/s
Count of elements : 1287
Stream size : 42.3 KiB (0%)
Title : Norwegian Bokmal
Language : Norwegian Bokmal
Default : No
Forced : No

Text #21
ID : 23
Format : UTF-8
Codec ID : S_TEXT/UTF8
Codec ID/Info : UTF-8 Plain Text
Duration : 2 h 1 min
Bit rate : 49 b/s
Count of elements : 1577
Stream size : 44.0 KiB (0%)
Title : Polish
Language : Polish
Default : No
Forced : No

Text #22
ID : 24
Format : UTF-8
Codec ID : S_TEXT/UTF8
Codec ID/Info : UTF-8 Plain Text
Duration : 2 h 1 min
Bit rate : 52 b/s
Count of elements : 1558
Stream size : 47.2 KiB (0%)
Title : Portuguese
Language : Portuguese
Default : No
Forced : No

Text #23
ID : 25
Format : UTF-8
Codec ID : S_TEXT/UTF8
Codec ID/Info : UTF-8 Plain Text
Duration : 2 h 1 min
Bit rate : 58 b/s
Count of elements : 1620
Stream size : 52.5 KiB (0%)
Title : Romanian
Language : Romanian
Default : No
Forced : No

Text #24
ID : 26
Format : UTF-8
Codec ID : S_TEXT/UTF8
Codec ID/Info : UTF-8 Plain Text
Duration : 2 h 1 min
Bit rate : 76 b/s
Count of elements : 1520
Stream size : 68.6 KiB (0%)
Title : Russian
Language : Russian
Default : No
Forced : No

Text #25
ID : 27
Format : UTF-8
Codec ID : S_TEXT/UTF8
Codec ID/Info : UTF-8 Plain Text
Duration : 2 h 1 min
Bit rate : 49 b/s
Count of elements : 1545
Stream size : 43.9 KiB (0%)
Title : Spanish
Language : Spanish
Default : No
Forced : No

Text #26
ID : 28
Format : UTF-8
Codec ID : S_TEXT/UTF8
Codec ID/Info : UTF-8 Plain Text
Duration : 2 h 1 min
Bit rate : 50 b/s
Count of elements : 1331
Stream size : 44.8 KiB (0%)
Title : Swedish
Language : Swedish
Default : No
Forced : No

Text #27
ID : 29
Format : UTF-8
Codec ID : S_TEXT/UTF8
Codec ID/Info : UTF-8 Plain Text
Duration : 2 h 1 min
Bit rate : 147 b/s
Count of elements : 1617
Stream size : 132 KiB (0%)
Title : Thai
Language : Thai
Default : No
Forced : No

Text #28
ID : 30
Format : UTF-8
Codec ID : S_TEXT/UTF8
Codec ID/Info : UTF-8 Plain Text
Duration : 2 h 1 min
Bit rate : 49 b/s
Count of elements : 1577
Stream size : 43.8 KiB (0%)
Title : Turkish
Language : Turkish
Default : No
Forced : No

Text #29
ID : 31
Format : UTF-8
Codec ID : S_TEXT/UTF8
Codec ID/Info : UTF-8 Plain Text
Duration : 1 h 58 min
Bit rate : 74 b/s
Count of elements : 1553
Stream size : 64.7 KiB (0%)
Title : Vietnamese
Language : Vietnamese
Default : No
Forced : No

Text #30
ID : 32
Format : UTF-8
Codec ID : S_TEXT/UTF8
Codec ID/Info : UTF-8 Plain Text
Duration : 2 h 1 min
Bit rate : 56 b/s
Count of elements : 1625
Stream size : 50.7 KiB (0%)
Title : Chinese Simplified
Language : Chinese
Default : No
Forced : No

Text #31
ID : 33
Format : UTF-8
Codec ID : S_TEXT/UTF8
Codec ID/Info : UTF-8 Plain Text
Duration : 2 h 1 min
Bit rate : 55 b/s
Count of elements : 1621
Stream size : 49.9 KiB (0%)
Title : Chinese Traditional
Language : Chinese
Default : No
Forced : No



Files:

Enola.Holmes.2020.1080p.NF.WEBRip.DDP5.1.Atmos.x264-CM
  • Enola.Holmes.2020.1080p.NF.WEB-DL.DDP5.1.Atmos.x264-CMRG.mkv (5.3 GB)
  • RARBG.txt (0.0 KB)

Comments

Code:

  • http://tracker.trackerfix.com:80/announce
  • udp://9.rarbg.me:2840/announce
  • udp://9.rarbg.to:2810/announce