The.Earthling.1980.US.Cut.1080p.BluRay.x264.FLAC.HORiZON-ArtSubs

  • Category Movies
  • Type HD
  • Language English
  • Total size 4.7 GB
  • Uploaded By m1337e
  • Downloads 288
  • Last checked 23 minutes ago
  • Date uploaded 5 days ago
  • Seeders 19
  • Leechers 1

The Earthling

ActionDramaForeign

Patrick Foley has been on the move all his live. Tired of drifting, he wants to spend his last days in an isolated Australian valley where he grew up. On his difficult journey he meets Shawn, a little desperate city-boy whose parents were killed in an accident in this remote inhospitable territory. Being unable to accompany the boy back to the civilized world he reluctantly takes him with him on his trip to that valley and teaches him in a rugged way how to survive ...

Infohash : F1EBB0331EA92F5DA40CA9A8354582755EFABD60

Release: The.Earthling.1980.US.Cut.1080p.BluRay.x264.FLAC.HORiZON-ArtSubs



IMDB: https://www.imdb.com/title/tt0080671/

Subtitle: English

Plot: Patrick Foley has been on the move all his life. Tired of drifting, he wants to spend his last days in an isolated Australian valley where he grew up. On his difficult journey he meets Shawn, a little desperate city-boy whose parents were killed in an accident in this remote inhospitable territory. Being unable to accompany the boy back to the civilized world he reluctantly takes him with him on his trip to that valley and teaches him in a rugged way how to survive ...

Complete name               : The.Earthling.1980.US.Cut.1080p.BluRay.x264.FLAC.HORiZON-ArtSubs.mkv
Format : Matroska
Format version : Version 4
File size : 4.74 GiB
Duration : 1 h 36 min
Overall bit rate mode : Variable
Overall bit rate : 6 995 kb/s
Encoded date : UTC 2020-09-20 03:12:53
Writing application : mkvmerge v50.0.0 ('Awakenings') 64-bit
Writing library : libebml v1.4.0 + libmatroska v1.6.2

Video
ID : 1
Format : AVC
Format/Info : Advanced Video Codec
Format profile : [email protected]
Format settings : CABAC / 4 Ref Frames
Format settings, CABAC : Yes
Format settings, Reference : 4 frames
Codec ID : V_MPEG4/ISO/AVC
Duration : 1 h 36 min
Bit rate : 6 600 kb/s
Width : 1 920 pixels
Height : 1 036 pixels
Display aspect ratio : 1.85:1
Frame rate mode : Constant
Frame rate : 23.976 (24000/1001) FPS
Color space : YUV
Chroma subsampling : 4:2:0
Bit depth : 8 bits
Scan type : Progressive
Bits/(Pixel*Frame) : 0.138
Stream size : 4.47 GiB (94%)
Writing library : x264 core 157 r2935 545de2f
Encoding settings : cabac=1 / ref=4 / deblock=1:-2:-2 / analyse=0x3:0x133 / me=umh / subme=10 / psy=1 / psy_rd=1.00:0.25 / mixed_ref=1 / me_range=24 / chroma_me=1 / trellis=2 / 8x8dct=1 / cqm=0 / deadzone=6,6 / fast_pskip=1 / chroma_qp_offset=-4 / threads=6 / lookahead_threads=1 / sliced_threads=0 / nr=0 / decimate=0 / interlaced=0 / bluray_compat=0 / constrained_intra=0 / bframes=8 / b_pyramid=2 / b_adapt=2 / b_bias=0 / direct=3 / weightb=1 / open_gop=0 / weightp=2 / keyint=240 / keyint_min=24 / scenecut=40 / intra_refresh=0 / rc_lookahead=60 / rc=2pass / mbtree=1 / bitrate=6600 / ratetol=1.0 / qcomp=0.75 / qpmin=0 / qpmax=69 / qpstep=4 / cplxblur=20.0 / qblur=0.5 / vbv_maxrate=25000 / vbv_bufsize=78125 / nal_hrd=none / filler=0 / ip_ratio=1.10 / aq=3:1.20
Default : Yes
Forced : No
Color range : Limited
Color primaries : BT.709
Transfer characteristics : BT.709
Matrix coefficients : BT.709

Audio
ID : 2
Format : FLAC
Format/Info : Free Lossless Audio Codec
Codec ID : A_FLAC
Duration : 1 h 36 min
Bit rate mode : Variable
Bit rate : 392 kb/s
Channel(s) : 2 channels
Channel layout : L R
Sampling rate : 48.0 kHz
Frame rate : 10.417 FPS (4608 SPF)
Bit depth : 16 bits
Compression mode : Lossless
Stream size : 272 MiB (6%)
Language : English
Default : Yes
Forced : No

Text
ID : 3
Format : UTF-8
Codec ID : S_TEXT/UTF8
Codec ID/Info : UTF-8 Plain Text
Duration : 1 h 34 min
Bit rate : 32 b/s
Count of elements : 847
Stream size : 22.6 KiB (0%)
Language : English
Default : Yes
Forced : No


SCREENSHOTS:






Files:

  • The.Earthling.1980.US.Cut.1080p.BluRay.x264.FLAC.HORiZON-ArtSubs.mkv (4.7 GB)

There are currently no comments. Feel free to leave one :)

Code:

  • udp://tracker.opentrackr.org:1337/announce
  • udp://tracker.coppersurfer.tk:6969/announce
  • udp://tracker.leechers-paradise.org:6969/announce