Jimi Hendrix: The Road To Woodstock (2014) 720p WEBRIP x264 AAC 2...

  • Category Documentaries
  • Type Documentary
  • Language English
  • Total size 2.1 GB
  • Uploaded By XannyFamily
  • Downloads 331
  • Last checked 34 minutes ago
  • Date uploaded 4 days ago
  • Seeders 30
  • Leechers 7

Infohash : 4ADA87AF84AA107EBDE8A1333EFF48C1A4EAD786

Jimi Hendrix: The Road To Woodstock (2014) 720p WEBRIP x264 AAC 2.0 [XannyFamily]

Direct webrip from BBC iPlayer. A one hour documentary about Jimi Hendrix performing at Woodstock.

Quote:

Account of one of Jimi Hendrix's most celebrated performances, featuring action from the Woodstock stage and interviews with his band members.

~ IMDB



Screenshots:






Encoding info:

Code:

General
Unique ID : 132583742740911952984608659416208480623 (0x63BEB3350F1895EF3C0ABD8CFEAD996F)
Complete name : /Volumes/sammy/Jimi Hendrix The Road To Woodstock (2014) 720p WEBRIP [XannyFamily].mkv
Format : Matroska
Format version : Version 4
File size : 2.11 GiB
Duration : 58 min 43 s
Overall bit rate : 5 135 kb/s
Movie name : Jimi Hendrix: The Road to Woodstock (2014) WEBRIP [XannyFamily]
Encoded date : UTC 2020-10-17 13:37:16
Writing application : mkvmerge v51.0.0 ('I Wish') 64-bit
Writing library : libebml v1.4.0 + libmatroska v1.6.2

Video
ID : 1
Format : AVC
Format/Info : Advanced Video Codec
Format profile : [email protected]
Format settings : CABAC / 4 Ref Frames
Format settings, CABAC : Yes
Format settings, Reference frames : 4 frames
Codec ID : V_MPEG4/ISO/AVC
Duration : 58 min 43 s
Bit rate : 5 004 kb/s
Width : 1 280 pixels
Height : 720 pixels
Display aspect ratio : 16:9
Frame rate mode : Constant
Frame rate : 50.000 FPS
Color space : YUV
Chroma subsampling : 4:2:0
Bit depth : 8 bits
Scan type : Progressive
Bits/(Pixel*Frame) : 0.109
Stream size : 2.05 GiB (97%)
Title : Jimi Hendrix: The Road to Woodstock (2014) WEBRIP [XannyFamily]
Language : English
Default : Yes
Forced : No
Color range : Limited
Color primaries : BT.709
Transfer characteristics : BT.709
Matrix coefficients : BT.709

Audio
ID : 2
Format : AAC LC
Format/Info : Advanced Audio Codec Low Complexity
Codec ID : A_AAC-2
Duration : 58 min 43 s
Bit rate : 128 kb/s
Channel(s) : 2 channels
Channel layout : L R
Sampling rate : 48.0 kHz
Frame rate : 46.875 FPS (1024 SPF)
Compression mode : Lossy
Stream size : 53.8 MiB (2%)
Language : English
Default : Yes
Forced : No

Files:

Jimi Hendrix The Road To Woodstock (2014) 720p WEBRIP x264 AAC 2.0 [XannyFamily]
  • Jimi Hendrix The Road To Woodstock (2014) 720p WEBRIP [XannyFamily].mkv (2.1 GB)
  • MediaInfo.txt (3.2 KB)

There are currently no comments. Feel free to leave one :)

Code:

  • udp://tracker.torrent.eu.org:451/announce
  • udp://explodie.org:6969/announce
  • udp://open.stealth.si:80/announce
  • udp://retracker.lanta-net.ru:2710/announce
  • udp://tracker.tiny-vps.com:6969/announce
  • udp://tracker.opentrackr.org:1337/announce
  • udp://tracker.internetwarriors.net:1337/announce
  • udp://exodus.desync.com:6969/announce
  • udp://tracker.coppersurfer.tk:6969/announce
  • udp://tracker.cyberia.is:6969/announce
  • udp://opentracker.i2p.rocks:6969/announce
  • udp://ipv4.tracker.harry.lu:80/announce
  • udp://opentor.org:2710/announce
  • http://open.acgnxtracker.com:80/announce
  • udp://tracker.leechers-paradise.org:6969/announce