Push.2009.BRRip.XviD.B4ND1T69

  • Category Movies
  • Type Divx/Xvid
  • Language English
  • Total size 1.3 GB
  • Uploaded By B4ND1T69
  • Downloads 138
  • Last checked 54 minutes ago
  • Date uploaded 3 days ago
  • Seeders 6
  • Leechers 2

Infohash : C64F0C40723D153629E8CE453DADFC4DDD73D654

Push.2009.BRRip.XviD.B4ND1T69



Director: Paul McGuigan
Writer: David Bourla
Stars: Camilla Belle, Dakota Fanning, Chris Evans

Plot/Story:
Two young Americans with special abilities must race to find a girl in Hong Kong before a shadowy government organization called Division does.

General
Complete name : Push.2009.BRRip.XviD.B4ND1T69.avi
Format : AVI
Format/Info : Audio Video Interleave
File size : 1.33 GiB
Duration : 1 h 51 min
Overall bit rate : 1 714 kb/s
Subtitles : Yes...Hardcoded for non-English parts + file included(HI)

Video
ID : 0
Format : MPEG-4 Visual
Format profile : Advanced [email protected]
Format settings, BVOP : 2
Format settings, QPel : No
Format settings, GMC : No warppoints
Format settings, Matrix : Default (H.263)
Codec ID : XVID
Codec ID/Hint : XviD
Duration : 1 h 51 min
Bit rate : 1 573 kb/s
Width : 720 pixels
Height : 304 pixels
Display aspect ratio : 2.35:1
Frame rate : 24.390 FPS
Color space : YUV
Chroma subsampling : 4:2:0
Bit depth : 8 bits
Scan type : Progressive
Compression mode : Lossy
Bits/(Pixel*Frame) : 0.295
Stream size : 1.22 GiB (92%)
Writing library : XviD 64

Audio
ID : 1
Format : MPEG Audio
Format version : Version 1
Format profile : Layer 3
Codec ID : 55
Codec ID/Hint : MP3
Duration : 1 h 51 min
Bit rate mode : Constant
Bit rate : 128 kb/s
Channel(s) : 2 channels
Sampling rate : 48.0 kHz
Compression mode : Lossy
Stream size : 102 MiB (7%)
Alignment : Aligned on interleaves
Interleave, duration : 24 ms (0.59 video frame)

Screenshots:










Please Seed For As Long As Possible
Or At Least 1:1 Ratio...Thanks
Enjoy Peeps

Files:

Push.2009.BRRip.XviD.B4ND1T69
  • Downloaded from ProStyleX.txt (0.1 KB)
  • Downloaded from ETTV.txt (0.1 KB)
  • Downloaded from 1337x.txt (0.1 KB)
  • Downloaded from newkatcr.co.txt (0.1 KB)
  • Push.2009.BRRip.XviD.B4ND1T69.srt (69.3 KB)
  • Push.2009.BRRip.XviD.B4ND1T69.avi (1.3 GB)

There are currently no comments. Feel free to leave one :)

Code:

  • udp://tracker.coppersurfer.tk:6969/announce
  • udp://tracker.leechers-paradise.org:6969/announce
  • udp://9.rarbg.to:2910/announce
  • udp://tracker.opentrackr.org:1337/announce
  • udp://open.stealth.si:80/announce
  • udp://exodus.desync.com:6969/announce
  • udp://tracker.uw0.xyz:6969/announce
  • udp://tracker.tiny-vps.com:6969/announce