Love.and.Monsters.2020.HDRip.XviD.B4ND1T69

  • Category Movies
  • Type Divx/Xvid
  • Language English
  • Total size 1.3 GB
  • Uploaded By B4ND1T69
  • Downloads 2018
  • Last checked 1 day ago
  • Date uploaded 1 week ago
  • Seeders 35
  • Leechers 2

Infohash : F421BD7B843F93902E7DA87ACDA922E9D1EDF77D

Love.and.Monsters.2020.HDRip.XviD.B4ND1T69



Director: Michael Matthews
Writers: Brian Duffield (screenplay by), Matthew Robinson (screenplay by)
Stars: Dylan O'Brien, Jessica Henwick, Michael Rooker

Plot/Story:
In a monster-infested world, Joel (Dylan O'Brien) learns his girlfriend is just 80 miles away. To make the dangerous journey, Joel discovers his inner hero to be with the girl of his dreams.

General
Complete name : Love.and.Monsters.2020.HDRip.XviD.B4ND1T69.avi
Format : AVI
Format/Info : Audio Video Interleave
File size : 1.32 GiB
Duration : 1 h 48 min
Overall bit rate : 1 741 kb/s
Subtitles : Yes...Included(HI)

Video
ID : 0
Format : MPEG-4 Visual
Format profile : Advanced [email protected]
Format settings, BVOP : 2
Format settings, QPel : No
Format settings, GMC : No warppoints
Format settings, Matrix : Default (H.263)
Codec ID : XVID
Codec ID/Hint : XviD
Duration : 1 h 48 min
Bit rate : 1 600 kb/s
Width : 720 pixels
Height : 304 pixels
Display aspect ratio : 2.35:1
Frame rate : 23.976 (24000/1001) FPS
Color space : YUV
Chroma subsampling : 4:2:0
Bit depth : 8 bits
Scan type : Progressive
Compression mode : Lossy
Bits/(Pixel*Frame) : 0.305
Stream size : 1.22 GiB (92%)
Writing library : XviD 64

Audio
ID : 1
Format : MPEG Audio
Format version : Version 1
Format profile : Layer 3
Codec ID : 55
Codec ID/Hint : MP3
Duration : 1 h 48 min
Bit rate mode : Constant
Bit rate : 128 kb/s
Channel(s) : 2 channels
Sampling rate : 48.0 kHz
Compression mode : Lossy
Stream size : 99.7 MiB (7%)
Alignment : Aligned on interleaves
Interleave, duration : 24 ms (0.58 video frame)

Screenshots:










Please Seed For As Long As Possible
Or At Least 1:1 Ratio...Thanks
Enjoy Peeps

Files:

Love.and.Monsters.2020.HDRip.XviD.B4ND1T69
  • Downloaded from ProStyleX.txt (0.1 KB)
  • Downloaded from ETTV.txt (0.1 KB)
  • Downloaded from 1337x.txt (0.1 KB)
  • Downloaded from newkatcr.co.txt (0.1 KB)
  • Love.and.Monsters.2020.HDRip.XviD.B4ND1T69.srt (124.7 KB)
  • Love.and.Monsters.2020.HDRip.XviD.B4ND1T69.avi (1.3 GB)

There are currently no comments. Feel free to leave one :)

Code:

  • udp://tracker.coppersurfer.tk:6969/announce
  • udp://tracker.leechers-paradise.org:6969/announce
  • udp://9.rarbg.to:2910/announce
  • udp://tracker.opentrackr.org:1337/announce
  • udp://open.stealth.si:80/announce
  • udp://exodus.desync.com:6969/announce
  • udp://tracker.uw0.xyz:6969/announce
  • udp://tracker.tiny-vps.com:6969/announce