Sex.And.The.City.2008.1080p.BluRay.x264.LLG

  • Category Movies
  • Type HD
  • Language English
  • Total size 1.7 GB
  • Uploaded By LifeLongg
  • Downloads 575
  • Last checked 6 hours ago
  • Date uploaded 2 days ago
  • Seeders 25
  • Leechers 20

Sex and the City

ComedyDramaRomance

A New York writer on sex and love is finally getting married to her Mr. Big. But her three best girlfriends must console her after one of them inadvertently leads Mr. Big to jilt her.

Infohash : 3F8994CC4F52D69257005398C52208D0126B3844

Quote:




******************************Thumbnbil:**********************




******************************Screenshots:********************

screenshot 1

screenshot 2

screenshot 3

screenshot 4

screenshot 5

screenshot 6

screenshot 7

screenshot 8

screenshot 9

screenshot 0


******************************************************

18+.Sex.And.The.City.2008.1080p.BluRay.x264.LLG.mp4
Format : MPEG-4
Format profile : Base Media
Codec ID : isom (isom/iso2/avc1/mp41)
File size : 1.66 GiB
Duration : 2 h 30 min
Overall bit rate mode : Variable
Overall bit rate : 1 579 kb/s
Writing application : Lavf58.29.100

Video
ID : 1
Format : AVC
Format/Info : Advanced Video Codec
Format profile : [email protected]
Format settings : CABAC / 1 Ref Frames
Format settings, CABAC : Yes
Format settings, Reference frames : 1 frame
Codec ID : avc1
Codec ID/Info : Advanced Video Coding
Duration : 2 h 30 min
Bit rate mode : Variable
Bit rate : 1 447 kb/s
Maximum bit rate : 4 500 kb/s
Width : 1 920 pixels
Height : 1 072 pixels
Display aspect ratio : 16:9
Frame rate mode : Constant
Frame rate : 23.976 (23976/1000) FPS
Color space : YUV
Chroma subsampling : 4:2:0
Bit depth : 8 bits
Scan type : Progressive
Bits/(Pixel*Frame) : 0.029
Stream size : 1.52 GiB (92%)
Codec configuration box : avcC

Audio
ID : 2
Format : AAC LC
Codec ID : mp4a-40-2
Duration : 2 h 30 min
Bit rate mode : Constant
Bit rate : 128 kb/s
Channel(s) : 2 channels
Channel layout : L R
Sampling rate : 48.0 kHz
Frame rate : 46.875 FPS (1024 SPF)
Compression mode : Lossy
Stream size : 139 MiB (8%)
Default : Yes
Alternate group : 1






********************************************************



Files:

18+.Sex.And.The.City.2008.1080p.BluRay.x264.LLG
  • Sample.mp4 (11.0 MB)
  • 18+.Sex.And.The.City.2008.1080p.BluRay.x264.LLG.mp4 (1.7 GB)

There are currently no comments. Feel free to leave one :)

Code:

  • udp://tracker.openbittorrent.com:80/announce
  • udp://tracker.opentrackr.org:1337/announce