Wife In a Metro (2020) ULLU Hindi 1080p WEBDL x264 AAC

  • Category Movies
  • Type Bollywood
  • Language Hindi
  • Total size 301.4 MB
  • Uploaded By krishh1337
  • Downloads 18170
  • Last checked 1 month ago
  • Date uploaded 1 month ago
  • Seeders 58
  • Leechers 1

Infohash : 315C3B9150F6EFA9BA2AC8C050C6BAA61C0848A2



Wife In a Metro:
When a bleeding heart is pampered by unexpected love, relationships bloom.
But what happens when trifling transverse connections between two turn their world upside down?
Story of a lonely heart.

Cast
Imran Khan ( Viabhav ) , Rajiv Kumar ( Rajeev ), Monaz Mewavala ( Renu ) , Ziya Siddique ( Jhanvi )
Director
Sunny Kapoor & Imran Khan.

Format : Matroska
Format version : Version 4
File size : 301 MiB
Duration : 21 min 31 s
Overall bit rate : 1 957 kb/s

Video
ID : 1
Format : AVC
Format/Info : Advanced Video Codec
Format profile : [email protected]
Format settings : 1 Ref Frames
Format settings, CABAC : No
Format settings, Reference frames : 1 frame
Codec ID : V_MPEG4/ISO/AVC
Duration : 21 min 31 s
Bit rate : 1 827 kb/s
Width : 1 920 pixels
Height : 1 080 pixels
Display aspect ratio : 16:9
Frame rate mode : Constant
Frame rate : 24.000 FPS
Color space : YUV
Chroma subsampling : 4:2:0
Bit depth : 8 bits
Scan type : Progressive
Bits/(Pixel*Frame) : 0.037
Stream size : 281 MiB (93%)

Audio
ID : 2
Format : AAC LC
Format/Info : Advanced Audio Codec Low Complexity
Codec ID : A_AAC-2
Duration : 21 min 31 s
Bit rate : 128 kb/s
Channel(s) : 2 channels
Channel layout : L R
Sampling rate : 48.0 kHz
Frame rate : 46.875 FPS (1024 SPF)
Compression mode : Lossy
Stream size : 19.7 MiB (7%)
Language : Hindi
Default : Yes

Files:

  • Wife In a Metro (2020) ULLU Hindi 1080p WEBDL x264 AAC.mkv (301.4 MB)

There are currently no comments. Feel free to leave one :)

Code:

  • udp://exodus.desync.com:6969/announce
  • udp://explodie.org:6969/announce
  • udp://tracker.tiny-vps.com:6969/announce
  • udp://tracker.torrent.eu.org:451/announce
  • udp://ipv4.tracker.harry.lu:80/announce
  • http://explodie.org:6969/announce
  • http://tracker.opentrackr.org:1337/announce
  • udp://9.rarbg.to:2800/announce
  • http://tracker3.itzmx.com:6961/announce
  • http://tracker1.itzmx.com:8080/announce
  • http://t.nyaatracker.com:80/announce
  • udp://open.stealth.si:80/announce
  • UDP://TRACKER.COPPERSURFER.TK:6969/ANNOUNCE
  • UDP://TRACKER.OPENTRACKR.ORG:1337/ANNOUNCE
  • UDP://TRACKER.LEECHERS-PARADISE.ORG:6969/ANNOUNCE