Veera Bhoga Vasantha Rayalu (2018) UNCUT 720p WEB-HDRip x264 [Dua...

  • Category Movies
  • Type Dubs/Dual Audio
  • Language Hindi
  • Total size 1.3 GB
  • Uploaded By DESIRE123
  • Downloads 10541
  • Last checked 4 weeks ago
  • Date uploaded 1 month ago
  • Seeders 98
  • Leechers 6

Veera Bhoga Vasantha Rayalu

A crime thriller film directed by Indrasena R, starring Nara Rohit, Sudheer Babu, Sree Vishnu and Shriya Saran in the lead roles.

Infohash : 528EF9C2BF4F4F24B675B7ABF8D3CD717F78FC99

Veera Bhoga Vasantha Rayalu (2018) UNCUT 720p WEB-HDRip x264 [Dual Audio] [Hindi DD 2.0 - Telugu 2.0] - 1.3 GB


This Movie Encoded by DesireMoVies.UNO


POSTER



INFO


General
Format : Matroska
Format version : Version 4
File size : 1.27 GiB
Duration : 2 h 6 min
Overall bit rate : 1 437 kb/s

Video
ID : 1
Format : AVC
Format/Info : Advanced Video Codec
Format profile : [email protected]
Format settings : CABAC / 5 Ref Frames
Format settings, CABAC : Yes
Format settings, Reference : 5 frames
Codec ID : V_MPEG4/ISO/AVC
Duration : 2 h 6 min
Bit rate : 1 150 kb/s
Width : 1 280 pixels
Height : 534 pixels
Display aspect ratio : 2.40:1
Original display aspect rat : 2.40:1
Frame rate mode : Constant
Frame rate : 25.000 FPS
Color space : YUV
Chroma subsampling : 4:2:0
Bit depth : 8 bits
Default : Yes
Forced : No
Color range : Limited
Color primaries : BT.709
Transfer characteristics : BT.709
Matrix coefficients : BT.709

Audio #1
ID : 2
Format : AC-3
Format/Info : Audio Coding 3
Commercial name : Dolby Digital
Codec ID : A_AC3
Duration : 2 h 6 min
Bit rate mode : Constant
Bit rate : 192 kb/s
Channel(s) : 2 channels
Channel layout : L R
Sampling rate : 48.0 kHz
Frame rate : 31.250 FPS (1536 SPF)
Compression mode : Lossy
Delay relative to video : -5 ms
Stream size : 173 MiB (13%)
Language : Hindi
Service kind : Complete Main
Default : Yes
Forced : No

Audio #2
ID : 3
Format : AC-3
Format/Info : Audio Coding 3
Commercial name : Dolby Digital
Codec ID : A_AC3
Duration : 2 h 6 min
Bit rate mode : Constant
Bit rate : 96.0 kb/s
Channel(s) : 2 channels
Channel layout : L R
Sampling rate : 48.0 kHz
Frame rate : 31.250 FPS (1536 SPF)
Compression mode : Lossy
Delay relative to video : -5 ms
Stream size : 86.6 MiB (7%)
Title : Stereo
Language : Telugu
Service kind : Complete Main
Default : No
Forced : No

Text
ID : 4
Format : ASS
Codec ID : S_TEXT/ASS
Codec ID/Info : Advanced Sub Station Alpha
Duration : 2 h 2 min
Bit rate : 67 b/s
Count of elements : 1103
Compression mode : Lossless
Stream size : 61.0 KiB (0%)
Language : English
Default : No
Forced : No


SCREENSHOT



Keep Visit DesireMoVies.Monster For More Exusive MoVies


Files:

Veera Bhoga Vasantha Rayalu (2018) UNCUT 720p WEB-HDRip x264 [Dual Audio] [Hindi DD 2.0 - Telugu 2.0]
  • VeeraBhoVastVRAY 720p UNCUT HD DesireMoVies.CyOU (1).mkv (1.3 GB)

Comments

Code:

  • udp://tracker.coppersurfer.tk:6969/announce
  • udp://tracker.opentrackr.org:1337/announce
  • udp://tracker.leechers-paradise.org:6969/announce
  • udp://p4p.arenabg.com:1337/announce
  • udp://9.rarbg.to:2710/announce
  • udp://9.rarbg.me:2710/announce
  • udp://exodus.desync.com:6969/announce
  • udp://open.stealth.si:80/announce
  • udp://tracker.tiny-vps.com:6969/announce
  • udp://tracker.sbsub.com:2710/announce
  • udp://retracker.lanta-net.ru:2710/announce
  • udp://tracker.cyberia.is:6969/announce
  • udp://tracker.torrent.eu.org:451/announce
  • udp://tracker.moeking.me:6969/announce
  • udp://tracker3.itzmx.com:6961/announce
  • http://tracker1.itzmx.com:8080/announce
  • udp://ipv4.tracker.harry.lu:80/announce
  • udp://bt1.archive.org:6969/announce
  • udp://bt2.archive.org:6969/announce
  • udp://zephir.monocul.us:6969/announce