The.Mandalorian.S02E01.1080p.DSNP.WEBRip.DDP5.1.Atmos.x264-PHOENi...

  • Category TV
  • Type HD
  • Language English
  • Total size 3.4 GB
  • Uploaded By MissionVow
  • Downloads 54515
  • Last checked 3 weeks ago
  • Date uploaded 1 month ago
  • Seeders 3824
  • Leechers 345

Infohash : BC27EDB42020E51AFF57BF6B4FF98E69A96AE1A7

Trailer: https://www.youtube.com/watch?v=eW7Twd85m2g

Upload provided by The Galactic Republic
Join us @ https://discord.gg/a4ee7bF and start your journey to find the Trove... good luck

https://www.imdb.com/title/tt8111088/

Full Image URLs:
https://orangepix.is/image/M3j6x
https://orangepix.is/image/M3HTG
https://orangepix.is/image/M38Av
https://orangepix.is/image/M3qJc
https://orangepix.is/image/M3yWr
https://orangepix.is/image/M3GFH

Medium Size Thumbnails:







MEDIA INFO:
Format                                   : Matroska
Format version                           : Version 4
File size                                : 3.35 GiB
Duration                                 : 51 min 48 s
Overall bit rate mode                    : Variable
Overall bit rate                         : 9 259 kb/s
Encoded date                             : UTC 2020-10-30 07:11:15
Writing application                      : mkvmerge v51.0.0 ('I Wish') 64-bit
Writing library                          : libebml v1.4.0 + libmatroska v1.6.2

Video
ID                                       : 1
Format                                   : AVC
Format/Info                              : Advanced Video Codec
Format profile                           : [email protected]
Format settings                          : CABAC / 4 Ref Frames
Format settings, CABAC                   : Yes
Format settings, Reference frames        : 4 frames
Codec ID                                 : V_MPEG4/ISO/AVC
Duration                                 : 51 min 48 s
Bit rate mode                            : Variable
Bit rate                                 : 8 489 kb/s
Maximum bit rate                         : 12.7 Mb/s
Width                                    : 1 920 pixels
Height                                   : 1 080 pixels
Display aspect ratio                     : 16:9
Frame rate mode                          : Constant
Frame rate                               : 23.976 (24000/1001) FPS
Color space                              : YUV
Chroma subsampling                       : 4:2:0
Bit depth                                : 8 bits
Scan type                                : Progressive
Bits/(Pixel*Frame)                       : 0.171
Stream size                              : 3.07 GiB (92%)
Language                                 : English
Default                                  : Yes
Forced                                   : No
Color range                              : Limited
Color primaries                          : BT.709
Transfer characteristics                 : BT.709
Matrix coefficients                      : BT.709

Audio
ID                                       : 2
Format                                   : E-AC-3 JOC
Format/Info                              : Enhanced AC-3 with Joint Object Coding
Commercial name                          : Dolby Digital Plus with Dolby Atmos
Codec ID                                 : A_EAC3
Duration                                 : 51 min 48 s
Bit rate mode                            : Constant
Bit rate                                 : 768 kb/s
Channel(s)                               : 6 channels
Channel layout                           : L R C LFE Ls Rs
Sampling rate                            : 48.0 kHz
Frame rate                               : 31.250 FPS (1536 SPF)
Compression mode                         : Lossy
Stream size                              : 285 MiB (8%)
Title                                    : English
Language                                 : English
Service kind                             : Complete Main
Default                                  : Yes
Forced                                   : No
Complexity index                         : 16
Number of dynamic objects                : 15
Bed channel count                        : 1 channel
Bed channel configuration                : LFE

Text #1
ID                                       : 3
Format                                   : UTF-8
Codec ID                                 : S_TEXT/UTF8
Codec ID/Info                            : UTF-8 Plain Text
Duration                                 : 48 min 25 s
Bit rate                                 : 43 b/s
Count of elements                        : 481
Stream size                              : 15.4 KiB (0%)
Title                                    : English (CC)
Language                                 : English
Default                                  : Yes
Forced                                   : No

Text #2
ID                                       : 4
Format                                   : UTF-8
Codec ID                                 : S_TEXT/UTF8
Codec ID/Info                            : UTF-8 Plain Text
Duration                                 : 51 min 37 s
Bit rate                                 : 28 b/s
Count of elements                        : 255
Stream size                              : 10.8 KiB (0%)
Title                                    : Dansk
Language                                 : Danish
Default                                  : No
Forced                                   : No

Text #3
ID                                       : 5
Format                                   : UTF-8
Codec ID                                 : S_TEXT/UTF8
Codec ID/Info                            : UTF-8 Plain Text
Duration                                 : 51 min 37 s
Bit rate                                 : 27 b/s
Count of elements                        : 339
Stream size                              : 10.4 KiB (0%)
Title                                    : Deutsch
Language                                 : German
Default                                  : No
Forced                                   : No

Text #4
ID                                       : 6
Format                                   : UTF-8
Codec ID                                 : S_TEXT/UTF8
Codec ID/Info                            : UTF-8 Plain Text
Duration                                 : 51 min 37 s
Bit rate                                 : 26 b/s
Count of elements                        : 343
Stream size                              : 10.2 KiB (0%)
Title                                    : Español (Latinoamericano)
Language                                 : Spanish
Default                                  : No
Forced                                   : No

Text #5
ID                                       : 7
Format                                   : UTF-8
Codec ID                                 : S_TEXT/UTF8
Codec ID/Info                            : UTF-8 Plain Text
Duration                                 : 51 min 37 s
Bit rate                                 : 25 b/s
Count of elements                        : 342
Stream size                              : 9.78 KiB (0%)
Title                                    : Español
Language                                 : Spanish
Default                                  : No
Forced                                   : No

Text #6
ID                                       : 8
Format                                   : UTF-8
Codec ID                                 : S_TEXT/UTF8
Codec ID/Info                            : UTF-8 Plain Text
Duration                                 : 51 min 37 s
Bit rate                                 : 28 b/s
Count of elements                        : 344
Stream size                              : 10.7 KiB (0%)
Title                                    : Suomi
Language                                 : Finnish
Default                                  : No
Forced                                   : No

Text #7
ID                                       : 9
Format                                   : UTF-8
Codec ID                                 : S_TEXT/UTF8
Codec ID/Info                            : UTF-8 Plain Text
Duration                                 : 51 min 37 s
Bit rate                                 : 26 b/s
Count of elements                        : 335
Stream size                              : 9.84 KiB (0%)
Title                                    : Français
Language                                 : French
Default                                  : No
Forced                                   : No

Text #8
ID                                       : 10
Format                                   : UTF-8
Codec ID                                 : S_TEXT/UTF8
Codec ID/Info                            : UTF-8 Plain Text
Duration                                 : 51 min 37 s
Bit rate                                 : 28 b/s
Count of elements                        : 343
Stream size                              : 10.7 KiB (0%)
Title                                    : Italiano
Language                                 : Italian
Default                                  : No
Forced                                   : No

Text #9
ID                                       : 11
Format                                   : UTF-8
Codec ID                                 : S_TEXT/UTF8
Codec ID/Info                            : UTF-8 Plain Text
Duration                                 : 51 min 37 s
Bit rate                                 : 30 b/s
Count of elements                        : 299
Stream size                              : 11.4 KiB (0%)
Title                                    : Nederlands
Language                                 : Dutch
Default                                  : No
Forced                                   : No

Text #10
ID                                       : 12
Format                                   : UTF-8
Codec ID                                 : S_TEXT/UTF8
Codec ID/Info                            : UTF-8 Plain Text
Duration                                 : 51 min 37 s
Bit rate                                 : 25 b/s
Count of elements                        : 343
Stream size                              : 9.67 KiB (0%)
Title                                    : Norsk
Language                                 : Norwegian
Default                                  : No
Forced                                   : No

Text #11
ID                                       : 13
Format                                   : UTF-8
Codec ID                                 : S_TEXT/UTF8
Codec ID/Info                            : UTF-8 Plain Text
Duration                                 : 51 min 37 s
Bit rate                                 : 26 b/s
Count of elements                        : 342
Stream size                              : 10.2 KiB (0%)
Title                                    : Polski
Language                                 : Polish
Default                                  : No
Forced                                   : No

Text #12
ID                                       : 14
Format                                   : UTF-8
Codec ID                                 : S_TEXT/UTF8
Codec ID/Info                            : UTF-8 Plain Text
Duration                                 : 51 min 37 s
Bit rate                                 : 28 b/s
Count of elements                        : 343
Stream size                              : 11.0 KiB (0%)
Title                                    : Português (Brasil)
Language                                 : Portuguese
Default                                  : No
Forced                                   : No

Text #13
ID                                       : 15
Format                                   : UTF-8
Codec ID                                 : S_TEXT/UTF8
Codec ID/Info                            : UTF-8 Plain Text
Duration                                 : 51 min 37 s
Bit rate                                 : 28 b/s
Count of elements                        : 341
Stream size                              : 10.9 KiB (0%)
Title                                    : Português
Language                                 : Portuguese
Default                                  : No
Forced                                   : No

Text #14
ID                                       : 16
Format                                   : UTF-8
Codec ID                                 : S_TEXT/UTF8
Codec ID/Info                            : UTF-8 Plain Text
Duration                                 : 51 min 37 s
Bit rate                                 : 30 b/s
Count of elements                        : 298
Stream size                              : 11.4 KiB (0%)
Title                                    : Svenska
Language                                 : Swedish
Default                                  : No
Forced                                   : No

Text #15
ID                                       : 17
Format                                   : UTF-8
Codec ID                                 : S_TEXT/UTF8
Codec ID/Info                            : UTF-8 Plain Text
Duration                                 : 8 min 38 s
Bit rate                                 : 0 b/s
Count of elements                        : 2
Stream size                              : 47.0 Bytes (0%)
Title                                    : Deutsch (Signs-&-Songs)
Language                                 : German
Default                                  : No
Forced                                   : No

Text #16
ID                                       : 18
Format                                   : UTF-8
Codec ID                                 : S_TEXT/UTF8
Codec ID/Info                            : UTF-8 Plain Text
Duration                                 : 8 min 38 s
Bit rate                                 : 0 b/s
Count of elements                        : 2
Stream size                              : 57.0 Bytes (0%)
Title                                    : Español (Signs-&-Songs)
Language                                 : Spanish
Default                                  : No
Forced                                   : No

Text #17
ID                                       : 19
Format                                   : UTF-8
Codec ID                                 : S_TEXT/UTF8
Codec ID/Info                            : UTF-8 Plain Text
Duration                                 : 8 min 38 s
Bit rate                                 : 0 b/s
Count of elements                        : 2
Stream size                              : 56.0 Bytes (0%)
Title                                    : Español (Signs-&-Songs)
Language                                 : Spanish
Default                                  : No
Forced                                   : No

Text #18
ID                                       : 20
Format                                   : UTF-8
Codec ID                                 : S_TEXT/UTF8
Codec ID/Info                            : UTF-8 Plain Text
Duration                                 : 8 min 38 s
Bit rate                                 : 0 b/s
Count of elements                        : 2
Stream size                              : 39.0 Bytes (0%)
Title                                    : Français (Signs-&-Songs)
Language                                 : French
Default                                  : No
Forced                                   : No

Text #19
ID                                       : 21
Format                                   : UTF-8
Codec ID                                 : S_TEXT/UTF8
Codec ID/Info                            : UTF-8 Plain Text
Duration                                 : 8 min 38 s
Bit rate                                 : 0 b/s
Count of elements                        : 2
Stream size                              : 47.0 Bytes (0%)
Title                                    : Italiano (Signs-&-Songs)
Language                                 : Italian
Default                                  : No
Forced                                   : No

Text #20
ID                                       : 22
Format                                   : UTF-8
Codec ID                                 : S_TEXT/UTF8
Codec ID/Info                            : UTF-8 Plain Text
Duration                                 : 8 min 38 s
Bit rate                                 : 0 b/s
Count of elements                        : 3
Stream size                              : 56.0 Bytes (0%)
Title                                    : Polski (Signs-&-Songs)
Language                                 : Polish
Default                                  : No
Forced                                   : No

Text #21
ID                                       : 23
Format                                   : UTF-8
Codec ID                                 : S_TEXT/UTF8
Codec ID/Info                            : UTF-8 Plain Text
Duration                                 : 8 min 38 s
Bit rate                                 : 0 b/s
Count of elements                        : 2
Stream size                              : 53.0 Bytes (0%)
Title                                    : Português (Signs-&-Songs)
Language                                 : Portuguese
Default                                  : No
Forced                                   : No

Files:

The.Mandalorian.S02E01.1080p.DSNP.WEBRip.DDP5.1.Atmos.x264-PHOENiX[rartv]
  • RARBG.txt (0.0 KB)
  • The.Mandalorian.S02E01.1080p.DSNP.WEB-DL.DDP5.1.Atmos.H.264-PHOENiX.mkv (3.4 GB)

Comments

Code:

  • http://tracker.trackerfix.com:80/announce
  • udp://9.rarbg.me:2880/announce
  • udp://9.rarbg.to:2860/announce