Greenland.2020.1080p.AMZN.WEBRip.DDP5.1.x264-NTG

  • Category Movies
  • Type HD
  • Language English
  • Total size 7.6 GB
  • Uploaded By prudence25
  • Downloads 12520
  • Last checked 1 week ago
  • Date uploaded 2 weeks ago
  • Seeders 3049
  • Leechers 490

Greenland

ActionThriller

A detached married couple must get their son and themselves to safety after being randomly selected to enter an underground bunker, as a massive object from space threatens to destroy the world in less than 48 hours.

Infohash : 61D2FE2B6D888BE09DA3306AD751F1F0AC37BC8D

Code:

Video
ID : 1
Format : AVC
Format/Info : Advanced Video Codec
Format profile : [email protected]
Format settings : CABAC / 4 Ref Frames
Format settings, CABAC : Yes
Format settings, Reference frames : 4 frames
Codec ID : V_MPEG4/ISO/AVC
Duration : 1 h 59 min
Bit rate mode : Constant
Bit rate : 8 390 kb/s
Nominal bit rate : 10 000 kb/s
Width : 1 920 pixels
Height : 800 pixels
Display aspect ratio : 2.40:1
Frame rate mode : Constant
Frame rate : 23.976 (24000/1001) FPS
Color space : YUV
Chroma subsampling : 4:2:0
Bit depth : 8 bits
Scan type : Progressive
Bits/(Pixel*Frame) : 0.228
Stream size : 7.02 GiB (93%)
Default : Yes
Forced : No
Color range : Limited
Color primaries : BT.709
Transfer characteristics : BT.709
Matrix coefficients : BT.709

Audio
ID : 2
Format : E-AC-3
Format/Info : Enhanced AC-3
Commercial name : Dolby Digital Plus
Codec ID : A_EAC3
Duration : 1 h 59 min
Bit rate mode : Constant
Bit rate : 640 kb/s
Channel(s) : 6 channels
Channel layout : L R C LFE Ls Rs
Sampling rate : 48.0 kHz
Frame rate : 31.250 FPS (1536 SPF)
Compression mode : Lossy
Stream size : 548 MiB (7%)
Language : English
Service kind : Complete Main
Default : Yes
Forced : No

Files:

Greenland.2020.1080p.AMZN.WEBRip.DDP5.1.x264-NTG
  • Greenland.2020.1080p.AMZN.WEB-DL.DDP5.1.H.264-NTG.mkv (7.6 GB)
  • RARBG.txt (0.0 KB)

Comments

Code:

  • http://tracker.trackerfix.com:80/announce
  • udp://9.rarbg.me:2860/announce
  • udp://9.rarbg.to:2990/announce