Dreamland.2019.1080p.AMZN.WEBRip.DDP5.1.x264-CM

  • Category Movies
  • Type HD
  • Language English
  • Total size 5.7 GB
  • Uploaded By prudence25
  • Downloads 616
  • Last checked 1 week ago
  • Date uploaded 2 weeks ago
  • Seeders 650
  • Leechers 55

Dreamland

DramaThriller

Amid the dust storms and economic depression of Dustbowl Era Oklahoma, Eugene Evans finds his family farm on the brink of foreclosure. His last bet to save the farm is the bounty on the head of fugitive bank robber Allison Wells.

Infohash : 5135EB021095019016CD952152EC9D9E881099DA

https://www.imdb.com/title/tt5294522/

Quote:

Video
ID : 1
Format : AVC
Format/Info : Advanced Video Codec
Format profile : [email protected]
Format settings : CABAC / 4 Ref Frames
Format settings, CABAC : Yes
Format settings, Reference frames : 4 frames
Codec ID : V_MPEG4/ISO/AVC
Duration : 1 h 41 min
Bit rate mode : Constant
Bit rate : 7 441 kb/s
Nominal bit rate : 10 000 kb/s
Width : 1 920 pixels
Height : 800 pixels
Display aspect ratio : 2.40:1
Frame rate mode : Constant
Frame rate : 23.976 (24000/1001) FPS
Color space : YUV
Chroma subsampling : 4:2:0
Bit depth : 8 bits
Scan type : Progressive
Bits/(Pixel*Frame) : 0.202
Stream size : 5.25 GiB (92%)
Default : Yes
Forced : No
Color range : Limited
Color primaries : BT.709
Transfer characteristics : BT.709
Matrix coefficients : BT.709

Audio
ID : 2
Format : E-AC-3
Format/Info : Enhanced AC-3
Commercial name : Dolby Digital Plus
Codec ID : A_EAC3
Duration : 1 h 41 min
Bit rate mode : Constant
Bit rate : 640 kb/s
Channel(s) : 6 channels
Channel layout : L R C LFE Ls Rs
Sampling rate : 48.0 kHz
Frame rate : 31.250 FPS (1536 SPF)
Compression mode : Lossy
Stream size : 462 MiB (8%)
Title : English
Language : English
Service kind : Complete Main
Default : No
Forced : No

Text #1
ID : 3
Format : UTF-8
Codec ID : S_TEXT/UTF8
Codec ID/Info : UTF-8 Plain Text
Duration : 1 h 38 min
Bit rate : 52 b/s
Count of elements : 1226
Stream size : 37.7 KiB (0%)
Title : English [SDH]
Language : English
Default : No
Forced : No

Text #2
ID : 4
Format : UTF-8
Codec ID : S_TEXT/UTF8
Codec ID/Info : UTF-8 Plain Text
Duration : 1 h 36 min
Bit rate : 47 b/s
Count of elements : 1076
Stream size : 33.9 KiB (0%)
Title : English
Language : English
Default : No
Forced : No

Files:

Dreamland.2020.1080p.AMZN.WEBRip.DDP5.1.x264-CM
  • Dreamland.2020.1080p.AMZN.WEB-DL.DDP5.1.H.264-CMRG.mkv (5.7 GB)
  • RARBG.txt (0.0 KB)

There are currently no comments. Feel free to leave one :)

Code:

  • http://tracker.trackerfix.com:80/announce
  • udp://9.rarbg.me:2880/announce
  • udp://9.rarbg.to:2720/announce