Aravinda Sametha Veera Raghava (2018) UNCUT 720p WEB-HDRip x264 [...

  • Category Movies
  • Type Dubs/Dual Audio
  • Language Hindi
  • Total size 1.6 GB
  • Uploaded By DESIRE123
  • Downloads 15168
  • Last checked 22 minutes ago
  • Date uploaded 3 days ago
  • Seeders 293
  • Leechers 103

Aravindha Sametha Veera Raghava

ActionComedyDramaThriller

Aravinda Sametha is a 2018 Telugu action drama, which has been written & directed by Trivikram Srinivas. The movie stars Jr. Ntr and Pooja Hedge in the lead roles.

Infohash : 2A7C177799D9302921748CFE89973D907B10B7F4

Aravinda Sametha Veera Raghava (2018) UNCUT 720p WEB-HDRip x264 [Dual Audio] [Hindi DD 2.0 - Kannada 2.0] - 1.6 GB


This Movie Encoded by DesireMoVies.CAM


POSTER



INFO


General
Format : Matroska
Format version : Version 4 / Version 2
File size : 1.61 GiB
Duration : 2 h 41 min
Overall bit rate : 1 431 kb/s

Video
ID : 1
Format : AVC
Format/Info : Advanced Video Codec
Format profile : [email protected]
Format settings, CABAC : Yes
Format settings, RefFrames : 8 frames
Codec ID : V_MPEG4/ISO/AVC
Duration : 2 h 41 min
Bit rate : 1 141 kb/s
Width : 1 280 pixels
Height : 540 pixels
Display aspect ratio : 2.40:1
Frame rate mode : Constant
Frame rate : 25.000 FPS
Color space : YUV
Chroma subsampling : 4:2:0
Bit depth : 8 bits
Default : Yes
Forced : No

Audio #1
ID : 2
Format : AC-3
Format/Info : Audio Coding 3
Mode : Dolby Digital
Format settings, Endianness : Big
Codec ID : A_AC3
Duration : 2 h 41 min
Bit rate mode : Constant
Bit rate : 192 kb/s
Channel(s) : 2 channels
Channel positions : Front: L R
Sampling rate : 48.0 kHz
Frame rate : 31.250 FPS (1536 SPF)
Bit depth : 16 bits
Compression mode : Lossy
Delay relative to video : -5 ms
Stream size : 222 MiB (13%)
Language : Hindi
Service kind : Complete Main
Default : Yes
Forced : No

Audio #2
ID : 3
Format : AC-3
Format/Info : Audio Coding 3
Format settings, Endianness : Big
Codec ID : A_AC3
Duration : 2 h 41 min
Bit rate mode : Constant
Bit rate : 96.0 kb/s
Channel(s) : 2 channels
Channel positions : Front: L R
Sampling rate : 48.0 kHz
Frame rate : 31.250 FPS (1536 SPF)
Bit depth : 16 bits
Compression mode : Lossy
Delay relative to video : -5 ms
Stream size : 111 MiB (7%)
Title : Stereo
Language : Kannada
Service kind : Complete Main
Default : No
Forced : No


SCREENSHOT



Keep Visit DesireMoVies.Monster For More Exusive MoVies


Files:

Aravinda Sametha Veera Raghava (2018) UNCUT 720p WEB-HDRip x264 [Dual Audio] [Hindi DD 2.0 - Kannada 2.0]
  • AraviSaMTH 720p UNCUT HD DesireMoVies.UNO (1).mkv (1.6 GB)

Comments

Code:

  • udp://tracker.openbittorrent.com:80/announce
  • udp://tracker.opentrackr.org:1337/announce