Valley.of.Tears.S01E03.My.Rock.My.Fortress.1080p.HMAX.WEB-DL.DD5....

  • Category TV
  • Type HD
  • Language Hebrew
  • Total size 2.8 GB
  • Uploaded By MorTuadh
  • Downloads 701
  • Last checked 18 hours ago
  • Date uploaded 1 week ago
  • Seeders 7
  • Leechers 0

Infohash : 254374D3DBD96AD685EF639124C543FF8639E5AC

https://www.imdb.com/title/tt8190688/

General
Format : Matroska
Format version : Version 4
File size : 2.84 GiB
Duration : 47 min 11 s
Overall bit rate mode : Variable
Overall bit rate : 8 628 kb/s
Writing application : mkvmerge v21.0.0 ('Tardigrades Will Inherit The Earth') 64-bit
Writing library : libebml v1.3.5 + libmatroska v1.4.8

Video
ID : 1
Format : AVC
Format/Info : Advanced Video Codec
Format profile : [email protected]
Format settings : CABAC / 4 Ref Frames
Format settings, CABAC : Yes
Format settings, Reference : 4 frames
Codec ID : V_MPEG4/ISO/AVC
Duration : 47 min 11 s
Bit rate mode : Variable
Bit rate : 8 242 kb/s
Maximum bit rate : 12.4 Mb/s
Width : 1 920 pixels
Height : 1 080 pixels
Display aspect ratio : 16:9
Frame rate mode : Constant
Frame rate : 23.976 (24000/1001) FPS
Color space : YUV
Chroma subsampling : 4:2:0
Bit depth : 8 bits
Scan type : Progressive
Bits/(Pixel*Frame) : 0.166
Stream size : 2.72 GiB (96%)
Default : Yes
Forced : No
Color range : Limited
Color primaries : BT.709
Transfer characteristics : BT.709
Matrix coefficients : BT.709

Audio
ID : 2
Format : AC-3
Format/Info : Audio Coding 3
Commercial name : Dolby Digital
Codec ID : A_AC3
Duration : 47 min 11 s
Bit rate mode : Constant
Bit rate : 384 kb/s
Channel(s) : 6 channels
Channel layout : L R C LFE Ls Rs
Sampling rate : 48.0 kHz
Frame rate : 31.250 FPS (1536 SPF)
Bit depth : 16 bits
Compression mode : Lossy
Stream size : 130 MiB (4%)
Language : Hebrew
Service kind : Complete Main
Default : Yes
Forced : No

Menu
00:46:51.000 : en:Credits




Files:

  • Valley.of.Tears.S01E03.My.Rock.My.Fortress.1080p.HMAX.WEB-DL.DD5.1.H.264-NTG.mkv (2.8 GB)

Comments

Code:

  • http://tracker.tfile.me/announce