The.League.of.Extraordinary.Gentlemen.2003.BRRip.XviD.B4ND1T69

  • Category Movies
  • Type Divx/Xvid
  • Language English
  • Total size 1.3 GB
  • Uploaded By B4ND1T69
  • Downloads 323
  • Last checked 34 minutes ago
  • Date uploaded 3 days ago
  • Seeders 33
  • Leechers 5

Infohash : FECC37EA4FBFB3F97EDDAFDA74FC11A7FB5625AF

The.League.of.Extraordinary.Gentlemen.2003.BRRip.XviD.B4ND1T69



Director: Stephen Norrington
Writers: Alan Moore (comic books), Kevin O'Neill (comic books)
Stars: Sean Connery, Stuart Townsend, Peta Wilson

Plot/Story:
In an alternate Victorian Age world, a group of famous contemporary fantasy, science fiction, and adventure characters team up on a secret mission.
Renowned adventurer Allan Quatermain leads a team of extraordinary figures with legendary powers to battle the technological terror of a madman known as "The Fantom". This "League" comprises seafarer and inventor Captain Nemo, vampire Mina Harker, an invisible man named Rodney Skinner, American Secret Service Agent Tom Sawyer, the ageless and invincible Dorian Gray, and the dangerous split personality of Dr. Jekyll and Mr. Hyde.

General
Complete name : The.League.of.Extraordinary.Gentlemen.2003.BRRip.XviD.B4ND1T69.avi
Format : AVI
Format/Info : Audio Video Interleave
File size : 1.29 GiB
Duration : 1 h 50 min
Overall bit rate : 1 675 kb/s
Subtitles : Yes...Hardcoded for non-English parts + file included

Video
ID : 0
Format : MPEG-4 Visual
Format profile : Advanced [email protected]
Format settings, BVOP : 2
Format settings, QPel : No
Format settings, GMC : No warppoints
Format settings, Matrix : Default (H.263)
Codec ID : XVID
Codec ID/Hint : XviD
Duration : 1 h 50 min
Bit rate : 1 534 kb/s
Width : 720 pixels
Height : 304 pixels
Display aspect ratio : 2.35:1
Frame rate : 23.976 (24000/1001) FPS
Color space : YUV
Chroma subsampling : 4:2:0
Bit depth : 8 bits
Scan type : Progressive
Compression mode : Lossy
Bits/(Pixel*Frame) : 0.292
Stream size : 1.18 GiB (92%)
Writing library : XviD 64

Audio
ID : 1
Format : MPEG Audio
Format version : Version 1
Format profile : Layer 3
Codec ID : 55
Codec ID/Hint : MP3
Duration : 1 h 50 min
Bit rate mode : Constant
Bit rate : 128 kb/s
Channel(s) : 2 channels
Sampling rate : 48.0 kHz
Compression mode : Lossy
Stream size : 101 MiB (8%)
Alignment : Aligned on interleaves
Interleave, duration : 24 ms (0.58 video frame)

Screenshots:










Please Seed For As Long As Possible
Or At Least 1:1 Ratio...Thanks
Enjoy Peeps

Files:

The.League.of.Extraordinary.Gentlemen.2003.BRRip.XviD.B4ND1T69
  • Downloaded from ProStyleX.txt (0.1 KB)
  • Downloaded from ETTV.txt (0.1 KB)
  • Downloaded from The Pirate Bay.txt (0.1 KB)
  • Downloaded from 1337x.txt (0.1 KB)
  • Downloaded from newkatcr.co.txt (0.1 KB)
  • The.League.of.Extraordinary.Gentlemen.2003.BRRip.XviD.B4ND1T69.srt (122.8 KB)
  • The.League.of.Extraordinary.Gentlemen.2003.BRRip.XviD.B4ND1T69.avi (1.3 GB)

Comments

Code:

  • udp://tracker.leechers-paradise.org:6969/announce
  • udp://9.rarbg.to:2910/announce
  • udp://tracker.opentrackr.org:1337/announce
  • udp://open.stealth.si:80/announce
  • udp://exodus.desync.com:6969/announce
  • udp://tracker.uw0.xyz:6969/announce
  • udp://tracker.tiny-vps.com:6969/announce
  • udp://tracker.coppersurfer.tk:6969/announce