SpongeBob.SquarePants.S12E28.Biddy.Sitting.1080p.AMZN.WEBRip.DDP2...

  • Category TV
  • Type HD
  • Language English
  • Total size 493.7 MB
  • Uploaded By prudence25
  • Downloads 94
  • Last checked 3 days ago
  • Date uploaded 1 week ago
  • Seeders 149
  • Leechers 3

Infohash : 937FBA6D821A6AB83E58003C33FDFCB9D8D941E7

Code:

Video
ID : 1
Format : AVC
Format/Info : Advanced Video Codec
Format profile : [email protected]
Format settings : CABAC / 4 Ref Frames
Format settings, CABAC : Yes
Format settings, Reference frames : 4 frames
Codec ID : V_MPEG4/ISO/AVC
Duration : 11 min 48 s
Bit rate mode : Constant
Bit rate : 5 618 kb/s
Nominal bit rate : 10 000 kb/s
Width : 1 920 pixels
Height : 1 080 pixels
Display aspect ratio : 16:9
Frame rate mode : Constant
Frame rate : 23.976 (24000/1001) FPS
Color space : YUV
Chroma subsampling : 4:2:0
Bit depth : 8 bits
Scan type : Progressive
Bits/(Pixel*Frame) : 0.113
Stream size : 475 MiB (96%)
Default : Yes
Forced : No
Color range : Limited
Color primaries : BT.709
Transfer characteristics : BT.709
Matrix coefficients : BT.709

Audio
ID : 2
Format : E-AC-3
Format/Info : Enhanced AC-3
Commercial name : Dolby Digital Plus
Codec ID : A_EAC3
Duration : 11 min 48 s
Bit rate mode : Constant
Bit rate : 224 kb/s
Channel(s) : 2 channels
Channel layout : L R
Sampling rate : 48.0 kHz
Frame rate : 31.250 FPS (1536 SPF)
Compression mode : Lossy
Delay relative to video : 10 ms
Stream size : 18.9 MiB (4%)
Language : English
Service kind : Complete Main
Default : Yes
Forced : No

Text
ID : 3
Format : UTF-8
Codec ID : S_TEXT/UTF8
Codec ID/Info : UTF-8 Plain Text
Duration : 11 min 8 s
Bit rate : 59 b/s
Count of elements : 241
Stream size : 4.82 KiB (0%)
Title : SDH
Language : English
Default : No
Forced : No

Files:

SpongeBob.SquarePants.S12E28.Biddy.Sitting.1080p.AMZN.WEBRip.DDP2.0.x264-LAZY[rarbg]
  • RARBG.txt (0.0 KB)
  • RARBG_DO_NOT_MIRROR.exe (0.1 KB)
  • SpongeBob.SquarePants.S12E28.Biddy.Sitting.1080p.AMZN.WEB-DL.DDP2.0.H.264-LAZY.mkv (493.7 MB)

There are currently no comments. Feel free to leave one :)

Code:

  • http://tracker.trackerfix.com:80/announce
  • udp://9.rarbg.me:2990/announce
  • udp://9.rarbg.to:2800/announce